<?xml version="1.0" standalone="no"?>
<!DOCTYPE svg PUBLIC "-//W3C//DTD SVG 1.1//EN" "http://www.w3.org/Graphics/SVG/1.1/DTD/svg11.dtd" >
<svg xmlns="http://www.w3.org/2000/svg">
<metadata></metadata>
<defs>
<font id="lucida_sans_unicoderegular" horiz-adv-x="1628" >
<font-face units-per-em="2048" ascent="1638" descent="-410" />
<missing-glyph horiz-adv-x="648" />
<glyph unicode="&#xd;" horiz-adv-x="1536" />
<glyph unicode=" "  horiz-adv-x="648" />
<glyph unicode="&#x09;" horiz-adv-x="648" />
<glyph unicode="&#xa0;" horiz-adv-x="648" />
<glyph unicode="!" horiz-adv-x="648" d="M225 0v197h197v-197h-197zM250 395l-25 789v296h197v-296l-24 -789h-148z" />
<glyph unicode="&#x22;" horiz-adv-x="765" d="M136 1086l-25 493h197l-24 -493h-148zM481 1086l-25 493h198l-25 -493h-148z" />
<glyph unicode="#" horiz-adv-x="1295" d="M203 0l111 444h-299l25 124h305l87 345h-324l25 123h329l112 444h127l-111 -444h263l111 444h128l-111 -444h299l-24 -123h-306l-87 -345h324l-25 -124h-329l-111 -444h-128l111 444h-263l-111 -444h-128zM473 568h263l87 345h-264z" />
<glyph unicode="$" horiz-adv-x="1295" d="M611 -123v123q-176 0 -395 83v170q226 -105 395 -105v531q-203 124 -277.5 219t-74.5 227q0 148 96.5 245.5t255.5 109.5v124h98v-124q146 0 321 -67v-161q-192 83 -321 93v-527q54 -33 81 -49q154 -93 209.5 -167.5t55.5 -187.5q0 -157 -93 -268.5t-253 -145.5v-123h-98 zM709 160q173 62 173 225q0 71 -33 116.5t-140 119.5v-461zM611 883v456q-179 -56 -179 -210q0 -76 37 -127.5t142 -118.5z" />
<glyph unicode="%" horiz-adv-x="1369" d="M24 -37l1166 1554h154l-1165 -1554h-155zM327 740q-145 0 -230 100t-85 270q0 171 85 270.5t230 99.5q144 0 229 -99.5t85 -270.5q0 -170 -85 -270t-229 -100zM327 839q76 0 121 73.5t45 197.5q0 125 -45 198.5t-121 73.5q-77 0 -122 -73.5t-45 -198.5q0 -124 45 -197.5 t122 -73.5zM1042 0q-145 0 -229.5 100t-84.5 270t84.5 270t229.5 100t230 -100t85 -270t-85 -270t-230 -100zM1042 99q77 0 122 73t45 198t-45 198.5t-122 73.5q-76 0 -121 -73.5t-45 -198.5t45 -198t121 -73z" />
<glyph unicode="&#x26;" horiz-adv-x="1428" d="M1061 0l-73 88q-164 -125 -383 -125q-232 0 -381.5 134.5t-149.5 342.5q0 342 361 464q-100 181 -100 301q0 131 104 221.5t254 90.5q144 0 237.5 -84.5t93.5 -214.5q0 -222 -325 -386q149 -264 347 -493q91 133 91 376l-1 72h196q0 -328 -196 -566q90 -114 205 -221 h-280zM902 202q-210 258 -400 585q-231 -92 -231 -299q0 -157 106.5 -267t259.5 -110q139 0 265 91zM627 957q212 97 212 258q0 70 -42.5 112t-111.5 42t-110.5 -42.5t-41.5 -112.5q0 -102 94 -257z" />
<glyph unicode="'" horiz-adv-x="469" d="M160 1036l-49 543h247l-50 -543h-148z" />
<glyph unicode="(" horiz-adv-x="666" d="M592 -160v-136q-216 147 -342.5 399.5t-126.5 538.5q0 285 126.5 537.5t342.5 399.5v-136q-147 -160 -209.5 -344t-62.5 -457q0 -274 62.5 -458t209.5 -344z" />
<glyph unicode=")" horiz-adv-x="666" d="M74 1443v136q216 -147 342.5 -399.5t126.5 -537.5q0 -286 -126.5 -538.5t-342.5 -399.5v136q147 160 209 344t62 458q0 273 -62 457.5t-209 343.5z" />
<glyph unicode="*" horiz-adv-x="987" d="M832 1289l45 -141l-303 -66l3 15q0 41 -29 67zM777 838l-120 -87l-157 267q51 6 70 51zM331 751l-120 87l206 231q20 -45 70 -51zM110 1148l46 141l284 -125q-29 -25 -29 -67l2 -15zM420 1480h148l-31 -308q-18 11 -43 11t-43 -11z" />
<glyph unicode="+" d="M765 0v543h-543v99h543v542h99v-542h542v-99h-542v-543h-99z" />
<glyph unicode="," horiz-adv-x="648" d="M200 -321v74q96 27 96 227v20h-96v247h247v-214q0 -329 -247 -354z" />
<glyph unicode="-" horiz-adv-x="1185" d="M148 543v123h888v-123h-888z" />
<glyph unicode="." horiz-adv-x="648" d="M200 0v247h247v-247h-247z" />
<glyph unicode="/" horiz-adv-x="1074" d="M222 -296l526 1777h104l-526 -1777h-104z" />
<glyph unicode="0" horiz-adv-x="1295" d="M648 -37q-233 0 -375.5 213.5t-142.5 563.5t142.5 563.5t375.5 213.5q234 0 376 -213t142 -564q0 -350 -142 -563.5t-376 -213.5zM648 111q309 0 309 629t-309 629q-308 0 -308 -629t308 -629z" />
<glyph unicode="1" horiz-adv-x="1295" d="M536 0v1332h-234v124l432 37v-1493h-198z" />
<glyph unicode="2" horiz-adv-x="1295" d="M170 0v173q86 201 348 438l113 101q218 197 218 391q0 124 -74.5 195t-205.5 71q-153 0 -362 -119v174q197 93 392 93q208 0 333.5 -112t125.5 -297q0 -133 -63.5 -236t-236.5 -250l-76 -65q-237 -201 -274 -384h643v-173h-881z" />
<glyph unicode="3" horiz-adv-x="1295" d="M208 11v184q211 -84 332 -84q143 0 231.5 82t88.5 214q0 312 -437 312h-78v133l69 1q410 0 410 289q0 227 -272 227q-146 0 -324 -83v172q175 59 337 59q221 0 339 -88t118 -255q0 -261 -309 -372q358 -83 358 -392q0 -209 -138 -328t-379 -119q-137 0 -346 48z" />
<glyph unicode="4" horiz-adv-x="1295" d="M771 0v419h-666v149l666 912h185v-900h198v-161h-198v-419h-185zM298 580h486v658z" />
<glyph unicode="5" horiz-adv-x="1295" d="M249 -6v176q147 -59 280 -59q146 0 229.5 86t83.5 237q0 162 -118 247.5t-341 85.5q-52 0 -109 -7v720h749v-172h-576v-390q285 0 445 -131t160 -363q0 -216 -145.5 -338.5t-401.5 -122.5q-114 0 -256 31z" />
<glyph unicode="6" horiz-adv-x="1295" d="M352 767q141 183 355 183q194 0 317.5 -128.5t123.5 -329.5q0 -231 -138.5 -380t-352.5 -149q-244 0 -382 197.5t-138 546.5q0 470 241 690q131 121 362 121q134 0 332 -56v-172q-209 80 -344 80q-376 0 -376 -603zM950 453q0 164 -76 259.5t-208 95.5q-126 0 -216 -84 t-90 -202q0 -186 85.5 -298.5t226.5 -112.5q128 0 203 92t75 250z" />
<glyph unicode="7" horiz-adv-x="1295" d="M308 0q29 173 82.5 299t189.5 346l404 650h-762v185h950v-185q-569 -839 -637 -1295h-227z" />
<glyph unicode="8" horiz-adv-x="1295" d="M471 806q-122 85 -169.5 158t-47.5 176q0 168 123 273t321 105q183 0 296.5 -89t113.5 -231q0 -215 -276 -392q335 -164 335 -423q0 -185 -140 -302.5t-360 -117.5t-355 110.5t-135 290.5q0 266 294 442zM722 868q207 136 207 303q0 89 -69.5 143.5t-181.5 54.5 q-109 0 -177 -53.5t-68 -138.5q0 -83 61.5 -149t227.5 -160zM578 726q-119 -92 -161.5 -160.5t-42.5 -170.5q0 -127 82 -205.5t216 -78.5q129 0 210.5 67t81.5 174q0 86 -50.5 145.5t-195.5 145.5z" />
<glyph unicode="9" horiz-adv-x="1295" d="M233 9v167q188 -65 320 -65q184 0 287.5 156.5t103.5 435.5q-150 -185 -341 -185q-187 0 -317 137.5t-130 335.5q0 227 138.5 376.5t348.5 149.5q241 0 380 -193.5t139 -529.5q0 -214 -67 -402.5t-180 -293.5q-145 -135 -381 -135q-116 0 -301 46zM353 1025 q0 -169 77 -267t208 -98q126 0 214.5 85t88.5 205q0 189 -85.5 304.5t-224.5 115.5q-130 0 -204 -92t-74 -253z" />
<glyph unicode=":" horiz-adv-x="648" d="M225 0v197h197v-197h-197zM225 888v198h197v-198h-197z" />
<glyph unicode=";" horiz-adv-x="648" d="M225 -321v74q71 37 71 224v23h-71v197h197v-166q0 -303 -197 -352zM225 888v198h197v-198h-197z" />
<glyph unicode="&#x3c;" d="M1406 0l-1184 592l1184 592v-110l-961 -483l961 -481v-110z" />
<glyph unicode="=" d="M222 358v98h1184v-98h-1184zM222 728v99h1184v-99h-1184z" />
<glyph unicode="&#x3e;" d="M222 0v110l962 483l-962 481v110l1184 -592z" />
<glyph unicode="?" horiz-adv-x="864" d="M250 0v197h197v-197h-197zM250 395v54q0 112 30.5 186t116.5 173l63 73q157 180 157 295q0 89 -69.5 141t-187.5 52q-151 0 -323 -74v167q185 56 348 56q203 0 322.5 -91.5t119.5 -247.5q0 -88 -34.5 -151.5t-132.5 -156.5l-62 -58q-93 -88 -122 -147.5t-29 -160.5v-110 h-197z" />
<glyph unicode="@" horiz-adv-x="1758" d="M1093 44q-180 -81 -353 -81q-281 0 -464 173.5t-183 439.5q0 339 244 620q130 149 315.5 235t375.5 86q279 0 467.5 -180t188.5 -447q0 -247 -151 -420.5t-366 -173.5q-167 0 -167 115q0 42 21 105l40 126h-12q-181 -346 -387 -346q-87 0 -140 61t-53 163q0 141 72 300.5 t178 251.5q122 106 275 106q31 0 79 -3q49 -3 78 -3h137l-126 -636q-6 -32 -6 -62q0 -67 76 -67q133 0 237 142t104 324q0 230 -159 382t-401 152q-317 0 -563 -249.5t-246 -571.5q0 -225 154.5 -368.5t397.5 -143.5q157 0 301 72zM1073 833l39 195q-92 33 -160 33 q-100 0 -164 -56q-68 -59 -116.5 -189t-48.5 -255q0 -142 83 -142q61 0 161.5 113.5t205.5 300.5z" />
<glyph unicode="A" horiz-adv-x="1413" d="M17 0l587 1480h208l578 -1480h-227l-161 410h-627l-163 -410h-195zM436 566h505l-252 638z" />
<glyph unicode="B" horiz-adv-x="1178" d="M191 0v1480h384q222 0 340.5 -84t118.5 -242q0 -128 -79 -228t-225 -155q363 -111 363 -401q0 -130 -80 -231q-61 -77 -147 -108t-239 -31h-436zM399 157h43q231 0 299 29q130 55 130 204q0 132 -118 219.5t-295 87.5h-59v-540zM399 830h67q169 0 261 72t92 205 q0 216 -338 216h-82v-493z" />
<glyph unicode="C" horiz-adv-x="1417" d="M1303 76q-219 -113 -478 -113q-345 0 -533 202t-188 574q0 371 191.5 574.5t540.5 203.5q198 0 465 -65v-197q-304 105 -469 105q-241 0 -373 -163t-132 -460q0 -284 141 -447t386 -163q209 0 449 129v-180z" />
<glyph unicode="D" horiz-adv-x="1534" d="M191 0v1480h492q220 0 355.5 -49t234.5 -166q157 -186 157 -490q0 -343 -184 -556q-100 -117 -231.5 -168t-328.5 -51h-495zM401 157h269q288 0 408 155q129 165 129 443q0 261 -127 410q-77 91 -184 124.5t-322 33.5h-173v-1166z" />
<glyph unicode="E" horiz-adv-x="1110" d="M191 0v1480h827v-157h-617v-475h517v-155h-517v-536h660v-157h-870z" />
<glyph unicode="F" horiz-adv-x="1098" d="M191 0v1480h827v-157h-617v-496h518v-155h-518v-672h-210z" />
<glyph unicode="G" horiz-adv-x="1480" d="M1303 40q-269 -77 -469 -77q-353 0 -541.5 200.5t-188.5 576.5q0 370 191.5 573.5t538.5 203.5q223 0 467 -67v-194q-306 104 -469 104q-240 0 -372.5 -162.5t-132.5 -458.5q0 -293 142 -456t398 -163q105 0 227 37v482h209v-599z" />
<glyph unicode="H" horiz-adv-x="1505" d="M191 0v1480h210v-624h704v624h210v-1480h-210v699h-704v-699h-210z" />
<glyph unicode="I" horiz-adv-x="590" d="M190 0v1480h210v-1480h-210z" />
<glyph unicode="J" horiz-adv-x="637" d="M-184 -275v186q120 -39 214 -39q118 0 165.5 69t47.5 239v1300h210v-1293q0 -483 -457 -483q-70 0 -180 21z" />
<glyph unicode="K" horiz-adv-x="1337" d="M191 0v1480h197v-728l599 728h211l-580 -706l683 -774h-266l-647 750v-750h-197z" />
<glyph unicode="L" horiz-adv-x="1092" d="M191 0v1480h210v-1323h666v-157h-876z" />
<glyph unicode="M" horiz-adv-x="1764" d="M191 0v1480h291l410 -1145l422 1145h260v-1480h-196v1204l-408 -1105h-203l-396 1108v-1207h-180z" />
<glyph unicode="N" horiz-adv-x="1513" d="M191 0v1480h206l745 -1143v1143h180v-1480h-205l-746 1143v-1143h-180z" />
<glyph unicode="O" horiz-adv-x="1591" d="M796 -37q-315 0 -503.5 211.5t-188.5 565.5t188.5 565.5t503.5 211.5t503.5 -211.5t188.5 -565.5t-188.5 -565.5t-503.5 -211.5zM796 120q221 0 345 164.5t124 457.5q0 291 -124 454.5t-345 163.5t-345 -163.5t-124 -454.5q0 -293 124 -457.5t345 -164.5z" />
<glyph unicode="P" horiz-adv-x="1132" d="M191 0v1480h403q174 0 268.5 -28.5t154.5 -100.5q79 -95 79 -259q0 -236 -160 -370t-444 -134h-93v-588h-208zM399 747h85q187 0 289 86t102 244q0 132 -80.5 189t-266.5 57h-129v-576z" />
<glyph unicode="Q" horiz-adv-x="1591" d="M1505 -296q-349 113 -585 269q-94 -10 -145 -10q-298 0 -484.5 216t-186.5 561q0 354 188.5 565.5t503.5 211.5q316 0 504 -212t188 -568q0 -510 -379 -706q255 -112 529 -160zM796 120q221 0 345 164t124 456q0 293 -124 456.5t-345 163.5t-345 -163.5t-124 -454.5 q0 -293 124 -457.5t345 -164.5z" />
<glyph unicode="R" horiz-adv-x="1295" d="M191 0v1480h448q213 0 326.5 -94t113.5 -273q0 -141 -78.5 -251t-220.5 -169l494 -693h-258l-421 626h-196v-626h-208zM399 783h68q194 0 295 79t101 231q0 230 -332 230h-132v-540z" />
<glyph unicode="S" horiz-adv-x="1103" d="M100 28v208q250 -116 412 -116q123 0 198.5 65.5t75.5 170.5q0 87 -49.5 148t-182.5 136l-102 59q-189 108 -266.5 203.5t-77.5 221.5q0 172 124 282.5t316 110.5q171 0 361 -57v-192q-234 92 -349 92q-109 0 -180 -58t-71 -146q0 -74 52 -131t190 -136l106 -60 q192 -109 268 -206t76 -233q0 -193 -142 -310t-377 -117q-150 0 -382 65z" />
<glyph unicode="T" horiz-adv-x="1295" d="M543 0v1323h-525v157h1260v-157h-525v-1323h-210z" />
<glyph unicode="U" horiz-adv-x="1419" d="M179 1480h210v-934q0 -223 82.5 -324.5t262.5 -101.5q176 0 249.5 95.5t73.5 323.5v941h184v-938q0 -194 -38 -298t-137 -183q-124 -98 -341 -98q-281 0 -413.5 142t-132.5 443v932z" />
<glyph unicode="V" horiz-adv-x="1339" d="M595 0l-559 1480h210l458 -1212l442 1212h184l-537 -1480h-198z" />
<glyph unicode="W" horiz-adv-x="1752" d="M383 0l-381 1480h202l303 -1169l279 1169h202l264 -1153l326 1153h171l-415 -1480h-209l-261 1141l-273 -1141h-208z" />
<glyph unicode="X" horiz-adv-x="1282" d="M16 0l491 743l-467 737h248l356 -558l374 558h198l-473 -715l485 -765h-248l-376 587l-389 -587h-199z" />
<glyph unicode="Y" horiz-adv-x="1276" d="M511 0v618l-494 862h240l384 -668l414 668h195l-529 -858v-622h-210z" />
<glyph unicode="Z" horiz-adv-x="1238" d="M95 0v168l795 1155h-746v157h998v-157l-795 -1155h795v-168h-1047z" />
<glyph unicode="[" horiz-adv-x="666" d="M197 -296v1875h395v-148h-222v-1579h222v-148h-395z" />
<glyph unicode="\" horiz-adv-x="1074" d="M852 -296h-104l-526 1777h104z" />
<glyph unicode="]" horiz-adv-x="666" d="M469 1579v-1875h-395v148h222v1579h-222v148h395z" />
<glyph unicode="^" horiz-adv-x="1295" d="M648 1149l-377 -754h-166l543 1085l543 -1085h-166z" />
<glyph unicode="_" horiz-adv-x="1024" d="M86 -148v148h851v-148h-851z" />
<glyph unicode="`" horiz-adv-x="1258" d="M864 1283h-148l-321 321h228z" />
<glyph unicode="a" horiz-adv-x="1131" d="M757 138q-177 -163 -341 -163q-135 0 -224 84.5t-89 213.5q0 178 149.5 273.5t429.5 95.5h46v131q0 189 -197 189q-153 0 -334 -96v163q199 81 375 81q181 0 267 -82.5t86 -254.5v-492q0 -169 104 -169q13 0 38 4l14 -109q-67 -32 -148 -32q-138 0 -176 163zM728 245v281 l-63 2q-164 0 -264.5 -61t-100.5 -162q0 -71 50 -120t122 -49q123 0 256 109z" />
<glyph unicode="b" horiz-adv-x="1289" d="M197 -12v1591h197v-697q121 228 363 228q196 0 308.5 -143t112.5 -391q0 -270 -127.5 -435.5t-335.5 -165.5q-193 0 -321 148l-24 -135h-173zM394 259q152 -136 290 -136q136 0 210 113.5t74 319.5q0 382 -252 382q-165 0 -322 -179v-500z" />
<glyph unicode="c" horiz-adv-x="1049" d="M951 33q-191 -58 -330 -58q-220 0 -365 163t-145 411q0 265 143.5 413t400.5 148q127 0 284 -35v-165q-167 49 -272 49q-152 0 -243 -113.5t-91 -302.5q0 -183 94 -296t246 -113q135 0 278 69v-170z" />
<glyph unicode="d" horiz-adv-x="1289" d="M894 0v204q-120 -229 -362 -229q-196 0 -308.5 143t-112.5 391q0 271 127.5 436t335.5 165q193 0 320 -148v617h198v-1579h-198zM894 827q-153 135 -290 135q-135 0 -209 -113t-74 -320q0 -381 252 -381q164 0 321 179v500z" />
<glyph unicode="e" horiz-adv-x="1141" d="M993 35q-198 -60 -339 -60q-241 0 -392 159.5t-151 413.5q0 247 133.5 405t341.5 158q197 0 304.5 -140.5t107.5 -398.5l-1 -60h-685q43 -387 379 -387q123 0 302 66v-156zM321 660h479q0 303 -226 303q-227 0 -253 -303z" />
<glyph unicode="f" horiz-adv-x="753" d="M234 0v938h-154v148h154v130q0 388 354 388q99 0 225 -33v-156q-133 41 -213 41q-97 0 -132.5 -46.5t-35.5 -172.5v-151h271v-148h-271v-938h-198z" />
<glyph unicode="g" horiz-adv-x="1277" d="M201 -361l23 171q171 -81 338 -81q332 0 332 353v171q-51 -108 -145.5 -168t-210.5 -60q-197 0 -312 141.5t-115 383.5q0 248 131 404t339 156q182 0 313 -148v124h198v-790q0 -255 -26.5 -377.5t-99.5 -200.5q-129 -137 -403 -137q-188 0 -362 58zM894 376v451 q-130 135 -283 135q-136 0 -213 -109t-77 -302q0 -354 251 -354q171 0 322 179z" />
<glyph unicode="h" horiz-adv-x="1271" d="M197 0v1579h197v-697q156 228 382 228q142 0 225.5 -89.5t83.5 -240.5v-780h-197v716q0 121 -35.5 172.5t-117.5 51.5q-181 0 -341 -237v-703h-197z" />
<glyph unicode="i" horiz-adv-x="592" d="M197 0v1086h197v-1086h-197zM197 1283v197h197v-197h-197z" />
<glyph unicode="j" horiz-adv-x="623" d="M-153 -369v156q138 -58 210 -58q82 0 127 44q30 30 37.5 68t7.5 159v1086h198v-1086q0 -419 -354 -419q-105 0 -226 50zM229 1283v197h198v-197h-198z" />
<glyph unicode="k" horiz-adv-x="1197" d="M197 0v1579h197v-1020l460 527h212l-439 -507l530 -579h-252l-511 557v-557h-197z" />
<glyph unicode="l" horiz-adv-x="592" d="M197 0v1579h197v-1579h-197z" />
<glyph unicode="m" horiz-adv-x="1912" d="M197 0v1086h197v-204q144 228 370 228q218 0 297 -228q140 229 364 229q143 0 222.5 -84.5t79.5 -236.5v-790h-198v759q0 186 -147 186q-153 0 -321 -217v-728h-198v759q0 187 -150 187q-149 0 -319 -218v-728h-197z" />
<glyph unicode="n" horiz-adv-x="1271" d="M197 0v1086h197v-204q156 228 382 228q142 0 225.5 -89.5t83.5 -240.5v-780h-197v716q0 121 -35.5 172.5t-117.5 51.5q-181 0 -341 -237v-703h-197z" />
<glyph unicode="o" horiz-adv-x="1258" d="M629 -25q-239 0 -378.5 153t-139.5 415t139.5 414.5t378.5 152.5t378.5 -152.5t139.5 -414.5t-139.5 -415t-378.5 -153zM629 123q147 0 228 110t81 310t-81 309.5t-228 109.5t-227.5 -109.5t-80.5 -309.5t80.5 -310t227.5 -110z" />
<glyph unicode="p" horiz-adv-x="1289" d="M197 -395v1481h197v-204q121 228 363 228q196 0 308.5 -143t112.5 -391q0 -270 -127.5 -435.5t-335.5 -165.5q-193 0 -321 148v-518h-197zM394 259q152 -136 290 -136q136 0 210 113.5t74 319.5q0 382 -252 382q-165 0 -322 -179v-500z" />
<glyph unicode="q" horiz-adv-x="1289" d="M894 -395v599q-120 -229 -362 -229q-196 0 -308.5 143t-112.5 391q0 271 127.5 436t335.5 165q193 0 320 -148v124h198v-1481h-198zM894 827q-153 135 -290 135q-135 0 -209 -113t-74 -320q0 -381 252 -381q164 0 321 179v500z" />
<glyph unicode="r" horiz-adv-x="838" d="M197 0v1086h197v-204q117 228 340 228q30 0 63 -5v-184q-51 17 -90 17q-187 0 -313 -222v-716h-197z" />
<glyph unicode="s" horiz-adv-x="1044" d="M157 38v181q193 -96 336 -96q85 0 141 46t56 115q0 101 -157 167l-115 49q-255 106 -255 305q0 142 100.5 223.5t275.5 81.5q91 0 225 -25l41 -8v-164q-165 49 -263 49q-86 0 -137.5 -37.5t-51.5 -100.5q0 -89 144 -150l95 -40q161 -68 228 -143.5t67 -188.5 q0 -143 -113 -235t-289 -92q-135 0 -328 63z" />
<glyph unicode="t" horiz-adv-x="766" d="M681 0q-91 -25 -158 -25q-150 0 -234 86t-84 239v638h-136v148h136v197l197 19v-216h284v-148h-284v-602q0 -213 184 -213q39 0 95 13v-136z" />
<glyph unicode="u" horiz-adv-x="1271" d="M876 0v204q-157 -229 -381 -229q-142 0 -226 89.5t-84 241.5v780h197v-716q0 -122 35.5 -173.5t118.5 -51.5q180 0 340 237v704h197v-1086h-197z" />
<glyph unicode="v" horiz-adv-x="1060" d="M422 0l-404 1086h197l316 -845l333 845h184l-429 -1086h-197z" />
<glyph unicode="w" horiz-adv-x="1578" d="M323 0l-311 1086h193l238 -841l257 841h197l225 -841l273 841h169l-354 -1086h-198l-230 841l-260 -841h-199z" />
<glyph unicode="x" horiz-adv-x="1256" d="M88 0l413 561l-401 525h234l317 -418l287 418h192l-376 -551l409 -535h-234l-327 430l-316 -430h-198z" />
<glyph unicode="y" horiz-adv-x="1070" d="M260 -395l176 395l-420 1086h213l311 -818l332 818h186l-593 -1481h-205z" />
<glyph unicode="z" horiz-adv-x="1174" d="M123 0v148l672 790h-641v148h884v-148l-672 -790h685v-148h-928z" />
<glyph unicode="{" horiz-adv-x="666" d="M25 716h49q153 0 153 161q0 68 -16 140l-19 87q-19 86 -19 168q0 133 95.5 215t262.5 92v-148h-28q-68 0 -113 -35.5t-45 -88.5q0 -24 13 -95l17 -102q11 -66 11 -157q0 -187 -147 -311q147 -125 147 -313q0 -90 -11 -156l-17 -102q-13 -71 -13 -96q0 -52 45.5 -87.5 t112.5 -35.5h28v-148q-168 10 -263 92.5t-95 215.5q0 82 19 167l19 87q15 72 15 142q0 160 -152 160h-49v148z" />
<glyph unicode="|" horiz-adv-x="765" d="M333 -296v1875h99v-1875h-99z" />
<glyph unicode="}" horiz-adv-x="666" d="M642 568h-50q-152 0 -152 -162q0 -68 16 -140l19 -87q19 -85 19 -168q0 -133 -95.5 -215t-262.5 -92v148h28q67 0 112.5 35.5t45.5 87.5q0 25 -13 96l-17 102q-12 64 -12 158q0 185 147 311q-147 124 -147 312q0 92 12 156l17 102q13 71 13 97q0 51 -45.5 86.5 t-112.5 35.5h-28v148q168 -10 263 -92t95 -216q0 -81 -19 -167l-19 -87q-16 -72 -16 -142q0 -159 152 -159h50v-148z" />
<glyph unicode="~" horiz-adv-x="1295" d="M105 444q0 145 77 237t199 92q80 0 215 -71l107 -56l128 -69q45 -22 91 -22q53 0 87 49.5t34 128.5v7h148q-21 -333 -266 -333q-89 0 -245 80l-112 58l-119 62q-36 18 -71 18q-55 0 -90 -50.5t-35 -130.5h-148z" />
<glyph unicode="&#xa1;" horiz-adv-x="648" d="M422 1086v-198h-197v198h197zM398 691l24 -790v-296h-197v296l25 790h148z" />
<glyph unicode="&#xa2;" horiz-adv-x="1295" d="M663 0v173q-203 20 -330.5 177t-127.5 388q0 236 120 382t338 175v185h99v-185q133 -6 284 -46v-166q-177 60 -284 70v-840q136 0 284 68v-150q-149 -58 -284 -58v-173h-99zM663 324v820q-242 -23 -242 -412q0 -330 242 -408z" />
<glyph unicode="&#xa3;" horiz-adv-x="1295" d="M247 0v173q210 67 210 316v227h-179v148h179v215q0 213 101.5 325.5t291.5 112.5q104 0 227 -30v-167q-124 49 -239 49q-97 0 -140.5 -54t-43.5 -176v-275h216v-148h-216v-127q0 -158 -36 -245t-137 -171h611v-173h-845z" />
<glyph unicode="&#xa4;" horiz-adv-x="1296" d="M380 386l-195 -195l-87 87l195 195q-90 119 -90 267t90 267l-195 196l87 87l195 -195q125 89 267 89t267 -89l195 195l88 -87l-195 -196q89 -119 89 -267t-89 -267l195 -195l-88 -87l-195 195q-125 -90 -267 -90t-267 90zM647 444q125 0 210.5 85.5t85.5 210.5 t-85.5 210.5t-210.5 85.5t-210.5 -85.5t-85.5 -210.5t85.5 -210.5t210.5 -85.5z" />
<glyph unicode="&#xa5;" horiz-adv-x="1295" d="M543 0v345h-296v148h296v99h-296v148h296l-463 740h233l360 -575l388 575h179l-500 -740h296v-148h-296v-99h296v-148h-296v-345h-197z" />
<glyph unicode="&#xa6;" horiz-adv-x="761" d="M333 -296v740h99v-740h-99zM333 839v740h99v-740h-99z" />
<glyph unicode="&#xa7;" horiz-adv-x="1295" d="M221 -260v180q242 -105 411 -105q129 0 209.5 50t80.5 130q0 67 -43 106t-187 101l-177 75q-289 124 -289 336q0 151 146 299q-141 94 -141 241q0 164 129.5 264t340.5 100q150 0 345 -47v-160q-202 59 -348 59q-129 0 -208.5 -51t-79.5 -134q0 -60 39 -99.5t136 -78.5 l136 -55q207 -83 286.5 -162.5t79.5 -203.5q0 -142 -149 -308q164 -95 164 -268q0 -157 -133.5 -250t-357.5 -93q-156 0 -390 74zM840 341q74 99 74 194q0 72 -47.5 118.5t-172.5 99.5l-222 93q-74 -90 -74 -185q0 -134 229 -230z" />
<glyph unicode="&#xa8;" horiz-adv-x="1258" d="M345 1283v173h173v-173h-173zM740 1283v173h173v-173h-173z" />
<glyph unicode="&#xa9;" horiz-adv-x="1752" d="M876 -37q-321 0 -549 228t-228 549q0 322 228 549.5t549 227.5q322 0 549.5 -227.5t227.5 -549.5q0 -321 -227.5 -549t-549.5 -228zM876 74q318 0 509 239q157 197 157 427q0 232 -157 427q-192 239 -509 239t-509 -239q-157 -195 -157 -427q0 -230 157 -427 q191 -239 509 -239zM1160 345q-141 -49 -255 -49q-189 0 -309.5 123t-120.5 316q0 202 118 322.5t315 120.5q92 0 226 -26l26 -5v-123q-136 56 -244 56q-132 0 -212.5 -94t-80.5 -247t83.5 -242.5t227.5 -89.5q113 0 226 62v-124z" />
<glyph unicode="&#xaa;" horiz-adv-x="864" d="M512 1001q-98 -92 -198 -92q-84 0 -137.5 52t-53.5 132q0 106 87.5 165.5t245.5 59.5h47v69q0 108 -119 108q-98 0 -204 -58v110q119 47 233 47q234 0 234 -204v-294q0 -89 56 -89q9 0 23 3l7 -83q-49 -18 -94 -18q-99 0 -127 92zM503 1081v151h-37q-199 0 -199 -120 q0 -40 27.5 -67t67.5 -27q68 0 141 63z" />
<glyph unicode="&#xab;" horiz-adv-x="1073" d="M999 913l-296 -370l296 -370l-98 -74l-395 444l395 444zM604 913l-296 -370l296 -370l-98 -74l-395 444l395 444z" />
<glyph unicode="&#xac;" d="M1308 296v395h-1086v99h1184v-494h-98z" />
<glyph unicode="&#xad;" horiz-adv-x="666" d="M111 543v148h444v-148h-444z" />
<glyph unicode="&#xae;" horiz-adv-x="1295" d="M648 629q-184 0 -314 130t-130 314q0 185 130 314.5t314 129.5q185 0 314.5 -129.5t129.5 -314.5q0 -184 -130 -314t-314 -130zM648 728q141 0 243.5 102t102.5 243q0 142 -102 244t-244 102q-141 0 -243 -102t-102 -244q0 -141 102 -243t243 -102zM469 802v530h154 q204 0 204 -138q0 -97 -109 -155l124 -237h-113l-113 216h-48v-216h-99zM568 1092h43q105 0 105 93q0 74 -101 74h-47v-167z" />
<glyph unicode="&#xaf;" horiz-adv-x="1024" d="M86 1456v148h851v-148h-851z" />
<glyph unicode="&#xb0;" horiz-adv-x="567" d="M286 1073q-93 0 -157.5 65t-64.5 158t64.5 157t157.5 64t157.5 -64.5t64.5 -156.5q0 -93 -64.5 -158t-157.5 -65zM286 1172q50 0 86.5 37t36.5 86q0 50 -36.5 87t-86.5 37q-49 0 -86 -37t-37 -87q0 -49 37 -86t86 -37z" />
<glyph unicode="&#xb1;" d="M222 0v99h1184v-99h-1184zM765 296v395h-543v99h543v394h99v-394h542v-99h-542v-395h-99z" />
<glyph unicode="&#xb2;" horiz-adv-x="864" d="M149 592v122q66 115 182 219l70 62q156 138 156 257q0 149 -164 149q-95 0 -222 -69v117q127 54 252 54q131 0 211 -68t80 -178q0 -79 -40 -142t-144 -148l-53 -44q-133 -109 -156 -209h389v-122h-561z" />
<glyph unicode="&#xb3;" horiz-adv-x="864" d="M170 1353v112q110 38 226 38q282 0 282 -209q0 -157 -191 -223q220 -50 220 -238q0 -122 -86.5 -192.5t-237.5 -70.5q-106 0 -225 29v122q130 -51 208 -51q83 0 134 45t51 118q0 182 -260 182h-51v93h44q244 0 244 166q0 129 -157 129q-92 0 -201 -50z" />
<glyph unicode="&#xb4;" horiz-adv-x="1258" d="M395 1283l241 321h228l-321 -321h-148z" />
<glyph unicode="&#xb5;" horiz-adv-x="1283" d="M197 -395v1481h197v-716q0 -210 182 -210q165 0 312 222v704h197v-1086h-197v204q-140 -229 -316 -229q-102 0 -178 50v-420h-197z" />
<glyph unicode="&#xb6;" horiz-adv-x="1295" d="M635 -296v1036q-197 14 -308 123.5t-111 290.5q0 155 86 241q86 85 333 85h395v-1776h-123v1653h-148v-1653h-124z" />
<glyph unicode="&#xb7;" horiz-adv-x="1295" d="M524 469v247h247v-247h-247z" />
<glyph unicode="&#xb8;" horiz-adv-x="1258" d="M626 0h97l-60 -109q77 0 135.5 -47.5t58.5 -110.5q0 -69 -58.5 -117t-142.5 -48q-72 0 -146 21v81q46 -15 105 -15q103 0 103 74q0 96 -187 96z" />
<glyph unicode="&#xb9;" horiz-adv-x="864" d="M407 592v792h-148v82l296 24v-898h-148z" />
<glyph unicode="&#xba;" horiz-adv-x="864" d="M449 909q-151 0 -238.5 92t-87.5 251q0 158 87.5 250t238.5 92q150 0 237.5 -92t87.5 -250q0 -159 -87.5 -251t-237.5 -92zM449 1009q168 0 168 243q0 242 -168 242q-169 0 -169 -242q0 -243 169 -243z" />
<glyph unicode="&#xbb;" horiz-adv-x="1073" d="M74 173l296 370l-296 370l99 74l394 -444l-394 -444zM469 173l296 370l-296 370l98 74l395 -444l-395 -444z" />
<glyph unicode="&#xbc;" horiz-adv-x="1641" d="M247 592v792h-148v82l296 24v-898h-148zM150 -37l1088 1554h135l-1087 -1554h-136zM1283 0v242h-407v114l403 532h140v-529h123v-117h-123v-242h-136zM1005 359h278v364z" />
<glyph unicode="&#xbd;" horiz-adv-x="1641" d="M247 592v792h-148v82l296 24v-898h-148zM100 -37l1088 1554h135l-1087 -1554h-136zM978 0v122q66 115 182 219l70 62q156 138 156 257q0 149 -164 149q-95 0 -222 -69v117q127 54 252 54q131 0 211 -68t80 -178q0 -79 -40 -142t-144 -148l-53 -44q-133 -109 -156 -209 h389v-122h-561z" />
<glyph unicode="&#xbe;" horiz-adv-x="1641" d="M111 1353v112q110 38 226 38q282 0 282 -209q0 -157 -191 -223q220 -50 220 -238q0 -122 -86.5 -192.5t-237.5 -70.5q-106 0 -225 29v122q130 -51 208 -51q83 0 134 45t51 118q0 182 -260 182h-51v93h44q244 0 244 166q0 129 -157 129q-92 0 -201 -50zM249 -37l1088 1554 h135l-1087 -1554h-136zM1283 0v242h-407v114l403 532h140v-529h123v-117h-123v-242h-136zM1005 359h278v364z" />
<glyph unicode="&#xbf;" horiz-adv-x="864" d="M614 1086v-198h-198v198h198zM614 691v-55q0 -111 -30.5 -185.5t-116.5 -173.5l-64 -72q-156 -179 -156 -295q0 -89 69 -141.5t187 -52.5q150 0 324 75v-167q-186 -56 -348 -56q-203 0 -322.5 91.5t-119.5 246.5q0 89 34 152t133 156l61 59q93 89 122 147.5t29 159.5v111 h198z" />
<glyph unicode="&#xc0;" horiz-adv-x="1413" d="M17 0l587 1480h208l578 -1480h-227l-161 410h-627l-163 -410h-195zM436 566h505l-252 638zM856 1604h-148l-321 321h228z" />
<glyph unicode="&#xc1;" horiz-adv-x="1413" d="M17 0l587 1480h208l578 -1480h-227l-161 410h-627l-163 -410h-195zM436 566h505l-252 638zM560 1604l241 321h228l-321 -321h-148z" />
<glyph unicode="&#xc2;" horiz-adv-x="1413" d="M17 0l587 1480h208l578 -1480h-227l-161 410h-627l-163 -410h-195zM436 566h505l-252 638zM358 1604l241 321h218l241 -321h-148l-203 202l-201 -202h-148z" />
<glyph unicode="&#xc3;" horiz-adv-x="1413" d="M17 0l587 1480h208l578 -1480h-227l-161 410h-627l-163 -410h-195zM436 566h505l-252 638zM370 1604q11 234 185 234q73 0 135 -38l60 -37q56 -35 85 -35q69 0 78 110h123q-11 -234 -185 -234q-73 0 -135 39l-60 37q-56 34 -85 34q-69 0 -78 -110h-123z" />
<glyph unicode="&#xc4;" horiz-adv-x="1413" d="M17 0l587 1480h208l578 -1480h-227l-161 410h-627l-163 -410h-195zM436 566h505l-252 638zM420 1604v173h173v-173h-173zM815 1604v173h173v-173h-173z" />
<glyph unicode="&#xc5;" horiz-adv-x="1413" d="M17 0l587 1480h208l578 -1480h-227l-161 410h-627l-163 -410h-195zM436 566h505l-252 638zM708 1604q-95 0 -161 66t-66 161q0 94 66 160.5t161 66.5q94 0 160.5 -66t66.5 -161t-66 -161t-161 -66zM708 1690q59 0 100 41t41 100t-41.5 100t-99.5 41q-59 0 -100 -41 t-41 -100q0 -58 41 -99.5t100 -41.5z" />
<glyph unicode="&#xc6;" horiz-adv-x="1857" d="M18 0l861 1480h883v-157h-618v-475h518v-155h-518v-536h664v-157h-874v414h-483l-241 -414h-192zM540 569h394v671z" />
<glyph unicode="&#xc7;" horiz-adv-x="1417" d="M1303 76q-219 -113 -478 -113q-345 0 -533 202t-188 574q0 371 191.5 574.5t540.5 203.5q198 0 465 -65v-197q-304 105 -469 105q-241 0 -373 -163t-132 -460q0 -284 141 -447t386 -163q209 0 449 129v-180zM770 0h97l-60 -109q77 0 135.5 -47.5t58.5 -110.5 q0 -69 -58.5 -117t-142.5 -48q-72 0 -146 21v81q46 -15 105 -15q103 0 103 74q0 96 -187 96z" />
<glyph unicode="&#xc8;" horiz-adv-x="1110" d="M191 0v1480h827v-157h-617v-475h517v-155h-517v-536h660v-157h-870zM765 1604h-148l-321 321h228z" />
<glyph unicode="&#xc9;" horiz-adv-x="1110" d="M191 0v1480h827v-157h-617v-475h517v-155h-517v-536h660v-157h-870zM456 1604l241 321h228l-321 -321h-148z" />
<glyph unicode="&#xca;" horiz-adv-x="1110" d="M191 0v1480h827v-157h-617v-475h517v-155h-517v-536h660v-157h-870zM265 1604l241 321h218l241 -321h-148l-203 202l-201 -202h-148z" />
<glyph unicode="&#xcb;" horiz-adv-x="1110" d="M191 0v1480h827v-157h-617v-475h517v-155h-517v-536h660v-157h-870zM342 1604v173h173v-173h-173zM737 1604v173h173v-173h-173z" />
<glyph unicode="&#xcc;" horiz-adv-x="590" d="M190 0v1480h210v-1480h-210zM443 1604h-148l-321 321h228z" />
<glyph unicode="&#xcd;" horiz-adv-x="590" d="M190 0v1480h210v-1480h-210zM147 1604l241 321h228l-321 -321h-148z" />
<glyph unicode="&#xce;" horiz-adv-x="590" d="M190 0v1480h210v-1480h-210zM-55 1604l241 321h218l241 -321h-148l-203 202l-201 -202h-148z" />
<glyph unicode="&#xcf;" horiz-adv-x="590" d="M190 0v1480h210v-1480h-210zM11 1604v173h173v-173h-173zM406 1604v173h173v-173h-173z" />
<glyph unicode="&#xd0;" horiz-adv-x="1534" d="M192 0v679h-222v157h222v644h492q221 0 356 -49t234 -166q157 -186 157 -490q0 -343 -184 -556q-100 -117 -231 -168t-329 -51h-495zM402 157h269q289 0 408 155q129 165 129 443q0 261 -127 410q-77 91 -184 124.5t-322 33.5h-173v-487h333v-157h-333v-522z" />
<glyph unicode="&#xd1;" horiz-adv-x="1513" d="M191 0v1480h206l745 -1143v1143h180v-1480h-205l-746 1143v-1143h-180zM448 1604q11 234 185 234q73 0 135 -38l60 -37q56 -35 85 -35q69 0 78 110h123q-11 -234 -185 -234q-73 0 -135 39l-60 37q-56 34 -85 34q-69 0 -78 -110h-123z" />
<glyph unicode="&#xd2;" horiz-adv-x="1591" d="M796 -37q-315 0 -503.5 211.5t-188.5 565.5t188.5 565.5t503.5 211.5t503.5 -211.5t188.5 -565.5t-188.5 -565.5t-503.5 -211.5zM796 120q221 0 345 164.5t124 457.5q0 291 -124 454.5t-345 163.5t-345 -163.5t-124 -454.5q0 -293 124 -457.5t345 -164.5zM944 1604h-148 l-321 321h228z" />
<glyph unicode="&#xd3;" horiz-adv-x="1591" d="M796 -37q-315 0 -503.5 211.5t-188.5 565.5t188.5 565.5t503.5 211.5t503.5 -211.5t188.5 -565.5t-188.5 -565.5t-503.5 -211.5zM796 120q221 0 345 164.5t124 457.5q0 291 -124 454.5t-345 163.5t-345 -163.5t-124 -454.5q0 -293 124 -457.5t345 -164.5zM648 1604 l241 321h228l-321 -321h-148z" />
<glyph unicode="&#xd4;" horiz-adv-x="1591" d="M796 -37q-315 0 -503.5 211.5t-188.5 565.5t188.5 565.5t503.5 211.5t503.5 -211.5t188.5 -565.5t-188.5 -565.5t-503.5 -211.5zM796 120q221 0 345 164.5t124 457.5q0 291 -124 454.5t-345 163.5t-345 -163.5t-124 -454.5q0 -293 124 -457.5t345 -164.5zM446 1604 l241 321h218l241 -321h-148l-203 202l-201 -202h-148z" />
<glyph unicode="&#xd5;" horiz-adv-x="1591" d="M796 -37q-315 0 -503.5 211.5t-188.5 565.5t188.5 565.5t503.5 211.5t503.5 -211.5t188.5 -565.5t-188.5 -565.5t-503.5 -211.5zM796 120q221 0 345 164.5t124 457.5q0 291 -124 454.5t-345 163.5t-345 -163.5t-124 -454.5q0 -293 124 -457.5t345 -164.5zM463 1604 q11 234 185 234q73 0 135 -38l60 -37q56 -35 85 -35q69 0 78 110h123q-11 -234 -185 -234q-73 0 -135 39l-60 37q-56 34 -85 34q-69 0 -78 -110h-123z" />
<glyph unicode="&#xd6;" horiz-adv-x="1591" d="M796 -37q-315 0 -503.5 211.5t-188.5 565.5t188.5 565.5t503.5 211.5t503.5 -211.5t188.5 -565.5t-188.5 -565.5t-503.5 -211.5zM796 120q221 0 345 164.5t124 457.5q0 291 -124 454.5t-345 163.5t-345 -163.5t-124 -454.5q0 -293 124 -457.5t345 -164.5zM512 1604v173 h173v-173h-173zM907 1604v173h173v-173h-173z" />
<glyph unicode="&#xd7;" d="M222 70l522 522l-522 523l70 69l522 -522l523 522l69 -69l-522 -523l522 -522l-69 -70l-523 523l-522 -523z" />
<glyph unicode="&#xd8;" horiz-adv-x="1591" d="M1097 1247q-119 113 -302 113q-220 0 -344 -163.5t-124 -454.5q0 -233 83 -393zM495 234q119 -114 303 -114q219 0 343 164t124 455q0 235 -83 393zM115 -37l169 221q-180 217 -180 557q0 354 188.5 565t502.5 211q237 0 413 -126l97 126h172l-169 -220 q180 -216 180 -559q0 -351 -188.5 -563t-500.5 -212q-245 0 -415 126l-96 -126h-173z" />
<glyph unicode="&#xd9;" horiz-adv-x="1419" d="M179 1480h210v-934q0 -223 82.5 -324.5t262.5 -101.5q176 0 249.5 95.5t73.5 323.5v941h184v-938q0 -194 -38 -298t-137 -183q-124 -98 -341 -98q-281 0 -413.5 142t-132.5 443v932zM871 1604h-148l-321 321h228z" />
<glyph unicode="&#xda;" horiz-adv-x="1419" d="M179 1480h210v-934q0 -223 82.5 -324.5t262.5 -101.5q176 0 249.5 95.5t73.5 323.5v941h184v-938q0 -194 -38 -298t-137 -183q-124 -98 -341 -98q-281 0 -413.5 142t-132.5 443v932zM575 1604l241 321h228l-321 -321h-148z" />
<glyph unicode="&#xdb;" horiz-adv-x="1419" d="M179 1480h210v-934q0 -223 82.5 -324.5t262.5 -101.5q176 0 249.5 95.5t73.5 323.5v941h184v-938q0 -194 -38 -298t-137 -183q-124 -98 -341 -98q-281 0 -413.5 142t-132.5 443v932zM373 1604l241 321h218l241 -321h-148l-203 202l-201 -202h-148z" />
<glyph unicode="&#xdc;" horiz-adv-x="1419" d="M179 1480h210v-934q0 -223 82.5 -324.5t262.5 -101.5q176 0 249.5 95.5t73.5 323.5v941h184v-938q0 -194 -38 -298t-137 -183q-124 -98 -341 -98q-281 0 -413.5 142t-132.5 443v932zM426 1604v173h173v-173h-173zM821 1604v173h173v-173h-173z" />
<glyph unicode="&#xdd;" horiz-adv-x="1276" d="M511 0v618l-494 862h240l384 -668l414 668h195l-529 -858v-622h-210zM493 1604l241 321h228l-321 -321h-148z" />
<glyph unicode="&#xde;" horiz-adv-x="1132" d="M191 0v1480h208v-293h195q268 0 385 -91t117 -297q0 -238 -159.5 -371t-444.5 -133h-93v-295h-208zM399 449h109q175 0 271 87.5t96 246.5q0 132 -80.5 189t-266.5 57h-129v-580z" />
<glyph unicode="&#xdf;" horiz-adv-x="1225" d="M197 0v1151q0 247 83.5 350t283.5 103q166 0 265 -72t99 -192q0 -122 -131 -295q-77 -101 -77 -141q0 -61 110 -155l161 -136q173 -146 173 -314q0 -150 -94 -237t-254 -87q-141 0 -282 58v169q183 -79 282 -79q74 0 118 43t44 115q0 51 -23 88t-92 96l-191 164 q-125 108 -125 219q0 84 100 238q83 127 83 219q0 151 -170 151q-166 0 -166 -222v-1234h-197z" />
<glyph unicode="&#xe0;" horiz-adv-x="1131" d="M757 138q-177 -163 -341 -163q-135 0 -224 84.5t-89 213.5q0 178 149.5 273.5t429.5 95.5h46v131q0 189 -197 189q-153 0 -334 -96v163q199 81 375 81q181 0 267 -82.5t86 -254.5v-492q0 -169 104 -169q13 0 38 4l14 -109q-67 -32 -148 -32q-138 0 -176 163zM728 245v281 l-63 2q-164 0 -264.5 -61t-100.5 -162q0 -71 50 -120t122 -49q123 0 256 109zM723 1283h-148l-321 321h228z" />
<glyph unicode="&#xe1;" horiz-adv-x="1131" d="M757 138q-177 -163 -341 -163q-135 0 -224 84.5t-89 213.5q0 178 149.5 273.5t429.5 95.5h46v131q0 189 -197 189q-153 0 -334 -96v163q199 81 375 81q181 0 267 -82.5t86 -254.5v-492q0 -169 104 -169q13 0 38 4l14 -109q-67 -32 -148 -32q-138 0 -176 163zM728 245v281 l-63 2q-164 0 -264.5 -61t-100.5 -162q0 -71 50 -120t122 -49q123 0 256 109zM426 1283l241 321h228l-321 -321h-148z" />
<glyph unicode="&#xe2;" horiz-adv-x="1131" d="M757 138q-177 -163 -341 -163q-135 0 -224 84.5t-89 213.5q0 178 149.5 273.5t429.5 95.5h46v131q0 189 -197 189q-153 0 -334 -96v163q199 81 375 81q181 0 267 -82.5t86 -254.5v-492q0 -169 104 -169q13 0 38 4l14 -109q-67 -32 -148 -32q-138 0 -176 163zM728 245v281 l-63 2q-164 0 -264.5 -61t-100.5 -162q0 -71 50 -120t122 -49q123 0 256 109zM220 1283l241 321h218l241 -321h-148l-203 202l-201 -202h-148z" />
<glyph unicode="&#xe3;" horiz-adv-x="1131" d="M757 138q-177 -163 -341 -163q-135 0 -224 84.5t-89 213.5q0 178 149.5 273.5t429.5 95.5h46v131q0 189 -197 189q-153 0 -334 -96v163q199 81 375 81q181 0 267 -82.5t86 -254.5v-492q0 -169 104 -169q13 0 38 4l14 -109q-67 -32 -148 -32q-138 0 -176 163zM728 245v281 l-63 2q-164 0 -264.5 -61t-100.5 -162q0 -71 50 -120t122 -49q123 0 256 109zM234 1283q11 234 185 234q73 0 135 -38l60 -37q56 -35 85 -35q69 0 78 110h123q-11 -234 -185 -234q-73 0 -135 39l-60 37q-56 34 -85 34q-69 0 -78 -110h-123z" />
<glyph unicode="&#xe4;" horiz-adv-x="1131" d="M757 138q-177 -163 -341 -163q-135 0 -224 84.5t-89 213.5q0 178 149.5 273.5t429.5 95.5h46v131q0 189 -197 189q-153 0 -334 -96v163q199 81 375 81q181 0 267 -82.5t86 -254.5v-492q0 -169 104 -169q13 0 38 4l14 -109q-67 -32 -148 -32q-138 0 -176 163zM728 245v281 l-63 2q-164 0 -264.5 -61t-100.5 -162q0 -71 50 -120t122 -49q123 0 256 109zM284 1283v173h173v-173h-173zM679 1283v173h173v-173h-173z" />
<glyph unicode="&#xe5;" horiz-adv-x="1131" d="M757 138q-177 -163 -341 -163q-135 0 -224 84.5t-89 213.5q0 178 149.5 273.5t429.5 95.5h46v131q0 189 -197 189q-153 0 -334 -96v163q199 81 375 81q181 0 267 -82.5t86 -254.5v-492q0 -169 104 -169q13 0 38 4l14 -109q-67 -32 -148 -32q-138 0 -176 163zM728 245v281 l-63 2q-164 0 -264.5 -61t-100.5 -162q0 -71 50 -120t122 -49q123 0 256 109zM568 1283q-95 0 -161 66t-66 161q0 94 66 160.5t161 66.5q94 0 160.5 -66t66.5 -161t-66 -161t-161 -66zM568 1369q59 0 100 41t41 100t-41.5 100t-99.5 41q-59 0 -100 -41t-41 -100 q0 -58 41 -99.5t100 -41.5z" />
<glyph unicode="&#xe6;" horiz-adv-x="1743" d="M809 193q-190 -218 -393 -218q-135 0 -224 84.5t-89 213.5q0 178 149.5 273.5t429.5 95.5h46v131q0 189 -197 189q-153 0 -334 -96v163q199 81 376 81q192 0 304 -121q123 121 303 121q418 0 418 -598h-672q28 -389 365 -389q140 0 307 71v-157q-193 -62 -359 -62 q-285 0 -430 218zM728 245v281l-63 2q-164 0 -264.5 -61t-100.5 -162q0 -71 50 -120t122 -49q123 0 256 109zM932 648h456q0 315 -214 315q-217 0 -242 -315z" />
<glyph unicode="&#xe7;" horiz-adv-x="1049" d="M951 33q-191 -58 -330 -58q-220 0 -365 163t-145 411q0 265 143.5 413t400.5 148q127 0 284 -35v-165q-167 49 -272 49q-152 0 -243 -113.5t-91 -302.5q0 -183 94 -296t246 -113q135 0 278 69v-170zM587 0h97l-60 -109q77 0 135.5 -47.5t58.5 -110.5q0 -69 -58.5 -117 t-142.5 -48q-72 0 -146 21v81q46 -15 105 -15q103 0 103 74q0 96 -187 96z" />
<glyph unicode="&#xe8;" horiz-adv-x="1141" d="M993 35q-198 -60 -339 -60q-241 0 -392 159.5t-151 413.5q0 247 133.5 405t341.5 158q197 0 304.5 -140.5t107.5 -398.5l-1 -60h-685q43 -387 379 -387q123 0 302 66v-156zM321 660h479q0 303 -226 303q-227 0 -253 -303zM717 1283h-148l-321 321h228z" />
<glyph unicode="&#xe9;" horiz-adv-x="1141" d="M993 35q-198 -60 -339 -60q-241 0 -392 159.5t-151 413.5q0 247 133.5 405t341.5 158q197 0 304.5 -140.5t107.5 -398.5l-1 -60h-685q43 -387 379 -387q123 0 302 66v-156zM321 660h479q0 303 -226 303q-227 0 -253 -303zM421 1283l241 321h228l-321 -321h-148z" />
<glyph unicode="&#xea;" horiz-adv-x="1141" d="M993 35q-198 -60 -339 -60q-241 0 -392 159.5t-151 413.5q0 247 133.5 405t341.5 158q197 0 304.5 -140.5t107.5 -398.5l-1 -60h-685q43 -387 379 -387q123 0 302 66v-156zM321 660h479q0 303 -226 303q-227 0 -253 -303zM235 1283l241 321h218l241 -321h-148l-203 202 l-201 -202h-148z" />
<glyph unicode="&#xeb;" horiz-adv-x="1141" d="M993 35q-198 -60 -339 -60q-241 0 -392 159.5t-151 413.5q0 247 133.5 405t341.5 158q197 0 304.5 -140.5t107.5 -398.5l-1 -60h-685q43 -387 379 -387q123 0 302 66v-156zM321 660h479q0 303 -226 303q-227 0 -253 -303zM308 1283v173h173v-173h-173zM703 1283v173h173 v-173h-173z" />
<glyph unicode="&#xec;" horiz-adv-x="592" d="M197 0v1086h197v-1086h-197zM444 1283h-148l-321 321h228z" />
<glyph unicode="&#xed;" horiz-adv-x="592" d="M197 0v1086h197v-1086h-197zM148 1283l241 321h228l-321 -321h-148z" />
<glyph unicode="&#xee;" horiz-adv-x="592" d="M197 0v1086h197v-1086h-197zM-54 1283l241 321h218l241 -321h-148l-203 202l-201 -202h-148z" />
<glyph unicode="&#xef;" horiz-adv-x="592" d="M197 0v1086h197v-1086h-197zM12 1283v173h173v-173h-173zM407 1283v173h173v-173h-173z" />
<glyph unicode="&#xf0;" horiz-adv-x="1234" d="M110 1579q221 0 397 -76l169 169l87 -87l-143 -143q240 -159 371 -384.5t131 -480.5q0 -272 -139 -437t-368 -165q-227 0 -366.5 155t-139.5 408q0 244 138 397t358 153q62 0 137 -21q-80 145 -247 250l-168 -168l-87 87l144 144q-117 51 -274 51v148zM620 123 q140 0 221.5 113.5t81.5 309.5q0 397 -299 397q-143 0 -224 -108t-81 -298q0 -191 81 -302.5t220 -111.5z" />
<glyph unicode="&#xf1;" horiz-adv-x="1271" d="M197 0v1086h197v-204q156 228 382 228q142 0 225.5 -89.5t83.5 -240.5v-780h-197v716q0 121 -35.5 172.5t-117.5 51.5q-181 0 -341 -237v-703h-197zM333 1283q11 234 185 234q73 0 135 -38l60 -37q56 -35 85 -35q69 0 78 110h123q-11 -234 -185 -234q-73 0 -135 39 l-60 37q-56 34 -85 34q-69 0 -78 -110h-123z" />
<glyph unicode="&#xf2;" horiz-adv-x="1258" d="M629 -25q-239 0 -378.5 153t-139.5 415t139.5 414.5t378.5 152.5t378.5 -152.5t139.5 -414.5t-139.5 -415t-378.5 -153zM629 123q147 0 228 110t81 310t-81 309.5t-228 109.5t-227.5 -109.5t-80.5 -309.5t80.5 -310t227.5 -110zM777 1283h-148l-321 321h228z" />
<glyph unicode="&#xf3;" horiz-adv-x="1258" d="M629 -25q-239 0 -378.5 153t-139.5 415t139.5 414.5t378.5 152.5t378.5 -152.5t139.5 -414.5t-139.5 -415t-378.5 -153zM629 123q147 0 228 110t81 310t-81 309.5t-228 109.5t-227.5 -109.5t-80.5 -309.5t80.5 -310t227.5 -110zM481 1283l241 321h228l-321 -321h-148z " />
<glyph unicode="&#xf4;" horiz-adv-x="1258" d="M629 -25q-239 0 -378.5 153t-139.5 415t139.5 414.5t378.5 152.5t378.5 -152.5t139.5 -414.5t-139.5 -415t-378.5 -153zM629 123q147 0 228 110t81 310t-81 309.5t-228 109.5t-227.5 -109.5t-80.5 -309.5t80.5 -310t227.5 -110zM279 1283l241 321h218l241 -321h-148 l-203 202l-201 -202h-148z" />
<glyph unicode="&#xf5;" horiz-adv-x="1258" d="M629 -25q-239 0 -378.5 153t-139.5 415t139.5 414.5t378.5 152.5t378.5 -152.5t139.5 -414.5t-139.5 -415t-378.5 -153zM629 123q147 0 228 110t81 310t-81 309.5t-228 109.5t-227.5 -109.5t-80.5 -309.5t80.5 -310t227.5 -110zM296 1283q11 234 185 234q73 0 135 -38 l60 -37q56 -35 85 -35q69 0 78 110h123q-11 -234 -185 -234q-73 0 -135 39l-60 37q-56 34 -85 34q-69 0 -78 -110h-123z" />
<glyph unicode="&#xf6;" horiz-adv-x="1258" d="M629 -25q-239 0 -378.5 153t-139.5 415t139.5 414.5t378.5 152.5t378.5 -152.5t139.5 -414.5t-139.5 -415t-378.5 -153zM629 123q147 0 228 110t81 310t-81 309.5t-228 109.5t-227.5 -109.5t-80.5 -309.5t80.5 -310t227.5 -110zM345 1283v173h173v-173h-173zM740 1283 v173h173v-173h-173z" />
<glyph unicode="&#xf7;" d="M715 99v197h198v-197h-198zM222 543v99h1184v-99h-1184zM715 888v198h198v-198h-198z" />
<glyph unicode="&#xf8;" horiz-adv-x="1258" d="M111 -25l127 169q-127 146 -127 396q0 264 139 417t379 153q178 0 304 -85l68 85h146l-129 -165l2 -4q127 -159 127 -397q0 -262 -139 -415.5t-378 -153.5q-174 0 -304 85l-67 -85h-148zM895 787l-463 -591q77 -73 195 -73q147 0 229 109.5t82 305.5q0 136 -43 249z M364 298l463 590q-81 74 -196 74q-147 0 -228.5 -109.5t-81.5 -305.5q0 -145 43 -249z" />
<glyph unicode="&#xf9;" horiz-adv-x="1271" d="M876 0v204q-157 -229 -381 -229q-142 0 -226 89.5t-84 241.5v780h197v-716q0 -122 35.5 -173.5t118.5 -51.5q180 0 340 237v704h197v-1086h-197zM777 1283h-148l-321 321h228z" />
<glyph unicode="&#xfa;" horiz-adv-x="1271" d="M876 0v204q-157 -229 -381 -229q-142 0 -226 89.5t-84 241.5v780h197v-716q0 -122 35.5 -173.5t118.5 -51.5q180 0 340 237v704h197v-1086h-197zM481 1283l241 321h228l-321 -321h-148z" />
<glyph unicode="&#xfb;" horiz-adv-x="1271" d="M876 0v204q-157 -229 -381 -229q-142 0 -226 89.5t-84 241.5v780h197v-716q0 -122 35.5 -173.5t118.5 -51.5q180 0 340 237v704h197v-1086h-197zM279 1283l241 321h218l241 -321h-148l-203 202l-201 -202h-148z" />
<glyph unicode="&#xfc;" horiz-adv-x="1271" d="M876 0v204q-157 -229 -381 -229q-142 0 -226 89.5t-84 241.5v780h197v-716q0 -122 35.5 -173.5t118.5 -51.5q180 0 340 237v704h197v-1086h-197zM345 1283v173h173v-173h-173zM740 1283v173h173v-173h-173z" />
<glyph unicode="&#xfd;" horiz-adv-x="1070" d="M260 -395l176 395l-420 1086h213l311 -818l332 818h186l-593 -1481h-205zM392 1283l241 321h228l-321 -321h-148z" />
<glyph unicode="&#xfe;" horiz-adv-x="1289" d="M197 -395v1974h197v-697q121 228 363 228q196 0 308.5 -143t112.5 -391q0 -270 -127.5 -435.5t-335.5 -165.5q-193 0 -321 148v-518h-197zM394 259q152 -136 290 -136q136 0 210 113.5t74 319.5q0 382 -252 382q-165 0 -322 -179v-500z" />
<glyph unicode="&#xff;" horiz-adv-x="1070" d="M260 -395l176 395l-420 1086h213l311 -818l332 818h186l-593 -1481h-205zM266 1283v173h173v-173h-173zM661 1283v173h173v-173h-173z" />
<glyph unicode="&#x100;" horiz-adv-x="1413" d="M17 0l587 1480h208l578 -1480h-227l-161 410h-627l-163 -410h-195zM436 566h505l-252 638zM387 1604v148h642v-148h-642z" />
<glyph unicode="&#x101;" horiz-adv-x="1131" d="M757 138q-177 -163 -341 -163q-135 0 -224 84.5t-89 213.5q0 178 149.5 273.5t429.5 95.5h46v131q0 189 -197 189q-153 0 -334 -96v163q199 81 375 81q181 0 267 -82.5t86 -254.5v-492q0 -169 104 -169q13 0 38 4l14 -109q-67 -32 -148 -32q-138 0 -176 163zM728 245v281 l-63 2q-164 0 -264.5 -61t-100.5 -162q0 -71 50 -120t122 -49q123 0 256 109zM226 1283v148h642v-148h-642z" />
<glyph unicode="&#x102;" horiz-adv-x="1413" d="M17 0l587 1480h208l578 -1480h-227l-161 410h-627l-163 -410h-195zM436 566h505l-252 638zM370 1900h123q32 -148 210 -148t210 148h123q-15 -134 -106 -215t-227 -81t-226.5 80.5t-106.5 215.5z" />
<glyph unicode="&#x103;" horiz-adv-x="1131" d="M757 138q-177 -163 -341 -163q-135 0 -224 84.5t-89 213.5q0 178 149.5 273.5t429.5 95.5h46v131q0 189 -197 189q-153 0 -334 -96v163q199 81 375 81q181 0 267 -82.5t86 -254.5v-492q0 -169 104 -169q13 0 38 4l14 -109q-67 -32 -148 -32q-138 0 -176 163zM728 245v281 l-63 2q-164 0 -264.5 -61t-100.5 -162q0 -71 50 -120t122 -49q123 0 256 109zM259 1579h123q32 -148 210 -148t210 148h123q-15 -134 -106 -215t-227 -81t-226.5 80.5t-106.5 215.5z" />
<glyph unicode="&#x104;" horiz-adv-x="1413" d="M17 0l587 1480h208l578 -1480h-227l-161 410h-627l-163 -410h-195zM436 566h505l-252 638zM1163 0h107q-128 -77 -128 -178q0 -97 113 -97q57 0 92 15v-81q-60 -29 -138 -29q-92 0 -148 44t-56 115q0 125 158 211z" />
<glyph unicode="&#x105;" horiz-adv-x="1131" d="M757 138q-177 -163 -341 -163q-135 0 -224 84.5t-89 213.5q0 178 149.5 273.5t429.5 95.5h46v131q0 189 -197 189q-153 0 -334 -96v163q199 81 375 81q181 0 267 -82.5t86 -254.5v-492q0 -169 104 -169q13 0 38 4l14 -109q-67 -32 -148 -32q-138 0 -176 163zM728 245v281 l-63 2q-164 0 -264.5 -61t-100.5 -162q0 -71 50 -120t122 -49q123 0 256 109zM864 0h107q-128 -77 -128 -178q0 -97 113 -97q57 0 92 15v-81q-60 -29 -138 -29q-92 0 -148 44t-56 115q0 125 158 211z" />
<glyph unicode="&#x106;" horiz-adv-x="1417" d="M1303 76q-219 -113 -478 -113q-345 0 -533 202t-188 574q0 371 191.5 574.5t540.5 203.5q198 0 465 -65v-197q-304 105 -469 105q-241 0 -373 -163t-132 -460q0 -284 141 -447t386 -163q209 0 449 129v-180zM654 1604l241 321h228l-321 -321h-148z" />
<glyph unicode="&#x107;" horiz-adv-x="1049" d="M951 33q-191 -58 -330 -58q-220 0 -365 163t-145 411q0 265 143.5 413t400.5 148q127 0 284 -35v-165q-167 49 -272 49q-152 0 -243 -113.5t-91 -302.5q0 -183 94 -296t246 -113q135 0 278 69v-170zM445 1283l241 321h228l-321 -321h-148z" />
<glyph unicode="&#x108;" horiz-adv-x="1417" d="M1303 76q-219 -113 -478 -113q-345 0 -533 202t-188 574q0 371 191.5 574.5t540.5 203.5q198 0 465 -65v-197q-304 105 -469 105q-241 0 -373 -163t-132 -460q0 -284 141 -447t386 -163q209 0 449 129v-180zM477 1604l241 321h218l241 -321h-148l-203 202l-201 -202h-148 z" />
<glyph unicode="&#x109;" horiz-adv-x="1049" d="M951 33q-191 -58 -330 -58q-220 0 -365 163t-145 411q0 265 143.5 413t400.5 148q127 0 284 -35v-165q-167 49 -272 49q-152 0 -243 -113.5t-91 -302.5q0 -183 94 -296t246 -113q135 0 278 69v-170zM260 1283l241 321h218l241 -321h-148l-203 202l-201 -202h-148z" />
<glyph unicode="&#x10a;" horiz-adv-x="1417" d="M1303 76q-219 -113 -478 -113q-345 0 -533 202t-188 574q0 371 191.5 574.5t540.5 203.5q198 0 465 -65v-197q-304 105 -469 105q-241 0 -373 -163t-132 -460q0 -284 141 -447t386 -163q209 0 449 129v-180zM730 1604v197h197v-197h-197z" />
<glyph unicode="&#x10b;" horiz-adv-x="1049" d="M951 33q-191 -58 -330 -58q-220 0 -365 163t-145 411q0 265 143.5 413t400.5 148q127 0 284 -35v-165q-167 49 -272 49q-152 0 -243 -113.5t-91 -302.5q0 -183 94 -296t246 -113q135 0 278 69v-170zM545 1283v197h197v-197h-197z" />
<glyph unicode="&#x10c;" horiz-adv-x="1417" d="M1303 76q-219 -113 -478 -113q-345 0 -533 202t-188 574q0 371 191.5 574.5t540.5 203.5q198 0 465 -65v-197q-304 105 -469 105q-241 0 -373 -163t-132 -460q0 -284 141 -447t386 -163q209 0 449 129v-180zM1175 1925l-241 -321h-218l-241 321h148l203 -202l201 202h148 z" />
<glyph unicode="&#x10d;" horiz-adv-x="1049" d="M951 33q-191 -58 -330 -58q-220 0 -365 163t-145 411q0 265 143.5 413t400.5 148q127 0 284 -35v-165q-167 49 -272 49q-152 0 -243 -113.5t-91 -302.5q0 -183 94 -296t246 -113q135 0 278 69v-170zM966 1604l-241 -321h-218l-241 321h148l203 -202l201 202h148z" />
<glyph unicode="&#x10e;" horiz-adv-x="1534" d="M191 0v1480h492q220 0 355.5 -49t234.5 -166q157 -186 157 -490q0 -343 -184 -556q-100 -117 -231.5 -168t-328.5 -51h-495zM401 157h269q288 0 408 155q129 165 129 443q0 261 -127 410q-77 91 -184 124.5t-322 33.5h-173v-1166zM1097 1925l-241 -321h-218l-241 321h148 l203 -202l201 202h148z" />
<glyph unicode="&#x10f;" horiz-adv-x="1585" d="M894 0v204q-120 -229 -362 -229q-196 0 -308.5 143t-112.5 391q0 271 127.5 436t335.5 165q193 0 320 -148v617h198v-1579h-198zM894 827q-153 135 -290 135q-135 0 -209 -113t-74 -320q0 -381 252 -381q164 0 321 179v500zM1290 1125v59q76 21 76 181v17h-76v197h197 v-171q0 -263 -197 -283z" />
<glyph unicode="&#x110;" horiz-adv-x="1534" d="M192 0v679h-222v157h222v644h492q221 0 356 -49t234 -166q157 -186 157 -490q0 -343 -184 -556q-100 -117 -231 -168t-329 -51h-495zM402 157h269q289 0 408 155q129 165 129 443q0 261 -127 410q-77 91 -184 124.5t-322 33.5h-173v-487h333v-157h-333v-522z" />
<glyph unicode="&#x111;" horiz-adv-x="1289" d="M894 0v204q-120 -229 -362 -229q-196 0 -308.5 143t-112.5 391q0 271 127.5 436t335.5 165q193 0 320 -148v272h-259v123h259v222h198v-222h197v-123h-197v-1234h-198zM894 827q-153 135 -290 135q-135 0 -209 -113t-74 -320q0 -381 252 -381q164 0 321 179v500z" />
<glyph unicode="&#x112;" horiz-adv-x="1110" d="M191 0v1480h827v-157h-617v-475h517v-155h-517v-536h660v-157h-870zM314 1604v148h642v-148h-642z" />
<glyph unicode="&#x113;" horiz-adv-x="1141" d="M993 35q-198 -60 -339 -60q-241 0 -392 159.5t-151 413.5q0 247 133.5 405t341.5 158q197 0 304.5 -140.5t107.5 -398.5l-1 -60h-685q43 -387 379 -387q123 0 302 66v-156zM321 660h479q0 303 -226 303q-227 0 -253 -303zM272 1283v148h642v-148h-642z" />
<glyph unicode="&#x114;" horiz-adv-x="1110" d="M191 0v1480h827v-157h-617v-475h517v-155h-517v-536h660v-157h-870zM293 1900h123q32 -148 210 -148t210 148h123q-15 -134 -106 -215t-227 -81t-226.5 80.5t-106.5 215.5z" />
<glyph unicode="&#x115;" horiz-adv-x="1141" d="M993 35q-198 -60 -339 -60q-241 0 -392 159.5t-151 413.5q0 247 133.5 405t341.5 158q197 0 304.5 -140.5t107.5 -398.5l-1 -60h-685q43 -387 379 -387q123 0 302 66v-156zM321 660h479q0 303 -226 303q-227 0 -253 -303zM262 1579h123q32 -148 210 -148t210 148h123 q-15 -134 -106 -215t-227 -81t-226.5 80.5t-106.5 215.5z" />
<glyph unicode="&#x116;" horiz-adv-x="1110" d="M191 0v1480h827v-157h-617v-475h517v-155h-517v-536h660v-157h-870zM519 1604v197h197v-197h-197z" />
<glyph unicode="&#x117;" horiz-adv-x="1141" d="M993 35q-198 -60 -339 -60q-241 0 -392 159.5t-151 413.5q0 247 133.5 405t341.5 158q197 0 304.5 -140.5t107.5 -398.5l-1 -60h-685q43 -387 379 -387q123 0 302 66v-156zM321 660h479q0 303 -226 303q-227 0 -253 -303zM481 1283v197h197v-197h-197z" />
<glyph unicode="&#x118;" horiz-adv-x="1110" d="M191 0v1480h827v-157h-617v-475h517v-155h-517v-536h660v-157h-870zM840 0h107q-128 -77 -128 -178q0 -97 113 -97q57 0 92 15v-81q-60 -29 -138 -29q-92 0 -148 44t-56 115q0 125 158 211z" />
<glyph unicode="&#x119;" horiz-adv-x="1141" d="M993 35q-198 -60 -339 -60q-241 0 -392 159.5t-151 413.5q0 247 133.5 405t341.5 158q197 0 304.5 -140.5t107.5 -398.5l-1 -60h-685q43 -387 379 -387q123 0 302 66v-156zM321 660h479q0 303 -226 303q-227 0 -253 -303zM693 0h107q-128 -77 -128 -178q0 -97 113 -97 q57 0 92 15v-81q-60 -29 -138 -29q-92 0 -148 44t-56 115q0 125 158 211z" />
<glyph unicode="&#x11a;" horiz-adv-x="1110" d="M191 0v1480h827v-157h-617v-475h517v-155h-517v-536h660v-157h-870zM975 1925l-241 -321h-218l-241 321h148l203 -202l201 202h148z" />
<glyph unicode="&#x11b;" horiz-adv-x="1141" d="M993 35q-198 -60 -339 -60q-241 0 -392 159.5t-151 413.5q0 247 133.5 405t341.5 158q197 0 304.5 -140.5t107.5 -398.5l-1 -60h-685q43 -387 379 -387q123 0 302 66v-156zM321 660h479q0 303 -226 303q-227 0 -253 -303zM919 1604l-241 -321h-218l-241 321h148l203 -202 l201 202h148z" />
<glyph unicode="&#x11c;" horiz-adv-x="1480" d="M1303 40q-269 -77 -469 -77q-353 0 -541.5 200.5t-188.5 576.5q0 370 191.5 573.5t538.5 203.5q223 0 467 -67v-194q-306 104 -469 104q-240 0 -372.5 -162.5t-132.5 -458.5q0 -293 142 -456t398 -163q105 0 227 37v482h209v-599zM479 1604l241 321h218l241 -321h-148 l-203 202l-201 -202h-148z" />
<glyph unicode="&#x11d;" horiz-adv-x="1277" d="M201 -361l23 171q171 -81 338 -81q332 0 332 353v171q-51 -108 -145.5 -168t-210.5 -60q-197 0 -312 141.5t-115 383.5q0 248 131 404t339 156q182 0 313 -148v124h198v-790q0 -255 -26.5 -377.5t-99.5 -200.5q-129 -137 -403 -137q-188 0 -362 58zM894 376v451 q-130 135 -283 135q-136 0 -213 -109t-77 -302q0 -354 251 -354q171 0 322 179zM279 1283l241 321h218l241 -321h-148l-203 202l-201 -202h-148z" />
<glyph unicode="&#x11e;" horiz-adv-x="1480" d="M1303 40q-269 -77 -469 -77q-353 0 -541.5 200.5t-188.5 576.5q0 370 191.5 573.5t538.5 203.5q223 0 467 -67v-194q-306 104 -469 104q-240 0 -372.5 -162.5t-132.5 -458.5q0 -293 142 -456t398 -163q105 0 227 37v482h209v-599zM469 1900h123q32 -148 210 -148t210 148 h123q-15 -134 -106 -215t-227 -81t-226.5 80.5t-106.5 215.5z" />
<glyph unicode="&#x11f;" horiz-adv-x="1277" d="M201 -361l23 171q171 -81 338 -81q332 0 332 353v171q-51 -108 -145.5 -168t-210.5 -60q-197 0 -312 141.5t-115 383.5q0 248 131 404t339 156q182 0 313 -148v124h198v-790q0 -255 -26.5 -377.5t-99.5 -200.5q-129 -137 -403 -137q-188 0 -362 58zM894 376v451 q-130 135 -283 135q-136 0 -213 -109t-77 -302q0 -354 251 -354q171 0 322 179zM268 1579h123q32 -148 210 -148t210 148h123q-15 -134 -106 -215t-227 -81t-226.5 80.5t-106.5 215.5z" />
<glyph unicode="&#x120;" horiz-adv-x="1480" d="M1303 40q-269 -77 -469 -77q-353 0 -541.5 200.5t-188.5 576.5q0 370 191.5 573.5t538.5 203.5q223 0 467 -67v-194q-306 104 -469 104q-240 0 -372.5 -162.5t-132.5 -458.5q0 -293 142 -456t398 -163q105 0 227 37v482h209v-599zM730 1604v197h197v-197h-197z" />
<glyph unicode="&#x121;" horiz-adv-x="1277" d="M201 -361l23 171q171 -81 338 -81q332 0 332 353v171q-51 -108 -145.5 -168t-210.5 -60q-197 0 -312 141.5t-115 383.5q0 248 131 404t339 156q182 0 313 -148v124h198v-790q0 -255 -26.5 -377.5t-99.5 -200.5q-129 -137 -403 -137q-188 0 -362 58zM894 376v451 q-130 135 -283 135q-136 0 -213 -109t-77 -302q0 -354 251 -354q171 0 322 179zM514 1283v197h197v-197h-197z" />
<glyph unicode="&#x122;" horiz-adv-x="1480" d="M1303 40q-269 -77 -469 -77q-353 0 -541.5 200.5t-188.5 576.5q0 370 191.5 573.5t538.5 203.5q223 0 467 -67v-194q-306 104 -469 104q-240 0 -372.5 -162.5t-132.5 -458.5q0 -293 142 -456t398 -163q105 0 227 37v482h209v-599zM790 0h97l-60 -109q77 0 135.5 -47.5 t58.5 -110.5q0 -69 -58.5 -117t-142.5 -48q-72 0 -146 21v81q46 -15 105 -15q103 0 103 74q0 96 -187 96z" />
<glyph unicode="&#x123;" horiz-adv-x="1277" d="M201 -361l23 171q171 -81 338 -81q332 0 332 353v171q-51 -108 -145.5 -168t-210.5 -60q-197 0 -312 141.5t-115 383.5q0 248 131 404t339 156q182 0 313 -148v124h198v-790q0 -255 -26.5 -377.5t-99.5 -200.5q-129 -137 -403 -137q-188 0 -362 58zM894 376v451 q-130 135 -283 135q-136 0 -213 -109t-77 -302q0 -354 251 -354q171 0 322 179zM701 1737v-59q-76 -21 -76 -181v-17h76v-197h-197v171q0 263 197 283z" />
<glyph unicode="&#x124;" horiz-adv-x="1505" d="M191 0v1480h210v-624h704v624h210v-1480h-210v699h-704v-699h-210zM403 1604l241 321h218l241 -321h-148l-203 202l-201 -202h-148z" />
<glyph unicode="&#x125;" horiz-adv-x="1271" d="M197 0v1579h197v-697q156 228 382 228q142 0 225.5 -89.5t83.5 -240.5v-780h-197v716q0 121 -35.5 172.5t-117.5 51.5q-181 0 -341 -237v-703h-197zM-54 1678l241 321h218l241 -321h-148l-203 202l-201 -202h-148z" />
<glyph unicode="&#x126;" horiz-adv-x="1617" d="M1160 856v230h-704v-230h704zM1370 0h-210v699h-704v-699h-210v1086h-197v148h197v246h210v-246h704v246h210v-246h197v-148h-197v-1086z" />
<glyph unicode="&#x127;" horiz-adv-x="1271" d="M394 882q156 228 382 228q142 0 225.5 -89.5t83.5 -240.5v-780h-197v716q0 121 -35.5 172.5t-117.5 51.5q-181 0 -341 -237v-703h-197v1234h-197v123h197v222h197v-222h297v-123h-297v-352z" />
<glyph unicode="&#x128;" horiz-adv-x="590" d="M190 0v1480h210v-1480h-210zM-38 1604q11 234 185 234q73 0 135 -38l60 -37q56 -35 85 -35q69 0 78 110h123q-11 -234 -185 -234q-73 0 -135 39l-60 37q-56 34 -85 34q-69 0 -78 -110h-123z" />
<glyph unicode="&#x129;" horiz-adv-x="592" d="M197 0v1086h197v-1086h-197zM-37 1283q11 234 185 234q73 0 135 -38l60 -37q56 -35 85 -35q69 0 78 110h123q-11 -234 -185 -234q-73 0 -135 39l-60 37q-56 34 -85 34q-69 0 -78 -110h-123z" />
<glyph unicode="&#x12a;" horiz-adv-x="590" d="M190 0v1480h210v-1480h-210zM-26 1604v148h642v-148h-642z" />
<glyph unicode="&#x12b;" horiz-adv-x="592" d="M197 0v1086h197v-1086h-197zM-25 1283v148h642v-148h-642z" />
<glyph unicode="&#x12c;" horiz-adv-x="590" d="M190 0v1480h210v-1480h-210zM-38 1900h123q32 -148 210 -148t210 148h123q-15 -134 -106 -215t-227 -81t-226.5 80.5t-106.5 215.5z" />
<glyph unicode="&#x12d;" horiz-adv-x="592" d="M197 0v1086h197v-1086h-197zM-37 1579h123q32 -148 210 -148t210 148h123q-15 -134 -106 -215t-227 -81t-226.5 80.5t-106.5 215.5z" />
<glyph unicode="&#x12e;" horiz-adv-x="590" d="M190 0v1480h210v-1480h-210zM293 0h107q-128 -77 -128 -178q0 -97 113 -97q57 0 92 15v-81q-60 -29 -138 -29q-92 0 -148 44t-56 115q0 125 158 211z" />
<glyph unicode="&#x12f;" horiz-adv-x="592" d="M198 0v1086h197v-1086h-197zM198 1283v197h197v-197h-197zM288 0h107q-128 -77 -128 -178q0 -97 113 -97q57 0 92 15v-81q-60 -29 -138 -29q-92 0 -148 44t-56 115q0 125 158 211z" />
<glyph unicode="&#x130;" horiz-adv-x="590" d="M190 0v1480h210v-1480h-210zM196 1604v197h197v-197h-197z" />
<glyph unicode="&#x131;" horiz-adv-x="592" d="M197 0v1086h197v-1086h-197z" />
<glyph unicode="&#x132;" horiz-adv-x="1220" d="M190 0v1480h210v-1480h-210zM400 -275v186q120 -39 214 -39q118 0 165.5 69t47.5 239v1300h210v-1293q0 -483 -457 -483q-70 0 -180 21z" />
<glyph unicode="&#x133;" horiz-adv-x="1185" d="M197 0v1086h197v-1086h-197zM197 1283v197h197v-197h-197zM408 -369v156q138 -58 210 -58q82 0 127 44q30 30 37.5 68t7.5 159v1086h198v-1086q0 -419 -354 -419q-105 0 -226 50zM790 1283v197h198v-197h-198z" />
<glyph unicode="&#x134;" horiz-adv-x="637" d="M-184 -275v186q120 -39 214 -39q118 0 165.5 69t47.5 239v1300h210v-1293q0 -483 -457 -483q-70 0 -180 21zM-2 1604l241 321h218l241 -321h-148l-203 202l-201 -202h-148z" />
<glyph unicode="&#x135;" horiz-adv-x="623" d="M-153 -369v156q138 -58 210 -58q82 0 127 44q30 30 37.5 68t7.5 159v1086h198v-1086q0 -419 -354 -419q-105 0 -226 50zM-22 1283l241 321h218l241 -321h-148l-203 202l-201 -202h-148z" />
<glyph unicode="&#x136;" horiz-adv-x="1337" d="M191 0v1480h197v-728l599 728h211l-580 -706l683 -774h-266l-647 750v-750h-197zM642 0h97l-60 -109q77 0 135.5 -47.5t58.5 -110.5q0 -69 -58.5 -117t-142.5 -48q-72 0 -146 21v81q46 -15 105 -15q103 0 103 74q0 96 -187 96z" />
<glyph unicode="&#x137;" horiz-adv-x="1197" d="M197 0v1579h197v-1020l460 527h212l-439 -507l530 -579h-252l-511 557v-557h-197zM584 0h97l-60 -109q77 0 135.5 -47.5t58.5 -110.5q0 -69 -58.5 -117t-142.5 -48q-72 0 -146 21v81q46 -15 105 -15q103 0 103 74q0 96 -187 96z" />
<glyph unicode="&#x138;" horiz-adv-x="1197" d="M197 0v1086h197v-527l460 527h212l-439 -507l530 -579h-252l-511 557v-557h-197z" />
<glyph unicode="&#x139;" horiz-adv-x="1092" d="M191 0v1480h210v-1323h666v-157h-876zM172 1604l241 321h228l-321 -321h-148z" />
<glyph unicode="&#x13a;" horiz-adv-x="592" d="M197 0v1579h197v-1579h-197zM148 1678l241 321h228l-321 -321h-148z" />
<glyph unicode="&#x13b;" horiz-adv-x="1092" d="M191 0v1480h210v-1323h666v-157h-876zM578 0h97l-60 -109q77 0 135.5 -47.5t58.5 -110.5q0 -69 -58.5 -117t-142.5 -48q-72 0 -146 21v81q46 -15 105 -15q103 0 103 74q0 96 -187 96z" />
<glyph unicode="&#x13c;" horiz-adv-x="592" d="M197 0v1579h197v-1579h-197zM259 0h97l-60 -109q77 0 135.5 -47.5t58.5 -110.5q0 -69 -58.5 -117t-142.5 -48q-72 0 -146 21v81q46 -15 105 -15q103 0 103 74q0 96 -187 96z" />
<glyph unicode="&#x13d;" horiz-adv-x="1092" d="M191 0v1480h210v-1323h666v-157h-876zM698 1026v59q76 21 76 181v17h-76v197h197v-171q0 -263 -197 -283z" />
<glyph unicode="&#x13e;" horiz-adv-x="888" d="M197 0v1579h197v-1579h-197zM593 1125v59q76 21 76 181v17h-76v197h197v-171q0 -263 -197 -283z" />
<glyph unicode="&#x13f;" horiz-adv-x="1092" d="M191 0v1480h210v-1323h666v-157h-876zM743 642v197h197v-197h-197z" />
<glyph unicode="&#x140;" horiz-adv-x="790" d="M197 0v1579h197v-1579h-197zM592 691v197h197v-197h-197z" />
<glyph unicode="&#x141;" horiz-adv-x="1092" d="M192 0v619l-221 -120v174l221 121v686h209v-572l221 120v-175l-221 -119v-577h666v-157h-875z" />
<glyph unicode="&#x142;" horiz-adv-x="592" d="M195 0v677l-222 -117v167l222 120v732h197v-623l223 112v-165l-223 -117v-786h-197z" />
<glyph unicode="&#x143;" horiz-adv-x="1513" d="M191 0v1480h206l745 -1143v1143h180v-1480h-205l-746 1143v-1143h-180zM609 1604l241 321h228l-321 -321h-148z" />
<glyph unicode="&#x144;" horiz-adv-x="1271" d="M197 0v1086h197v-204q156 228 382 228q142 0 225.5 -89.5t83.5 -240.5v-780h-197v716q0 121 -35.5 172.5t-117.5 51.5q-181 0 -341 -237v-703h-197zM468 1283l241 321h228l-321 -321h-148z" />
<glyph unicode="&#x145;" horiz-adv-x="1513" d="M191 0v1480h206l745 -1143v1143h180v-1480h-205l-746 1143v-1143h-180zM687 0h97l-60 -109q77 0 135.5 -47.5t58.5 -110.5q0 -69 -58.5 -117t-142.5 -48q-72 0 -146 21v81q46 -15 105 -15q103 0 103 74q0 96 -187 96z" />
<glyph unicode="&#x146;" horiz-adv-x="1271" d="M197 0v1086h197v-204q156 228 382 228q142 0 225.5 -89.5t83.5 -240.5v-780h-197v716q0 121 -35.5 172.5t-117.5 51.5q-181 0 -341 -237v-703h-197zM625 0h97l-60 -109q77 0 135.5 -47.5t58.5 -110.5q0 -69 -58.5 -117t-142.5 -48q-72 0 -146 21v81q46 -15 105 -15 q103 0 103 74q0 96 -187 96z" />
<glyph unicode="&#x147;" horiz-adv-x="1513" d="M191 0v1480h206l745 -1143v1143h180v-1480h-205l-746 1143v-1143h-180zM1105 1925l-241 -321h-218l-241 321h148l203 -202l201 202h148z" />
<glyph unicode="&#x148;" horiz-adv-x="1271" d="M197 0v1086h197v-204q156 228 382 228q142 0 225.5 -89.5t83.5 -240.5v-780h-197v716q0 121 -35.5 172.5t-117.5 51.5q-181 0 -341 -237v-703h-197zM990 1604l-241 -321h-218l-241 321h148l203 -202l201 202h148z" />
<glyph unicode="&#x149;" horiz-adv-x="1517" d="M444 0v1086h197v-204q156 228 382 228q142 0 225.5 -89.5t83.5 -240.5v-780h-197v716q0 121 -35.5 172.5t-117.5 51.5q-181 0 -341 -237v-703h-197zM75 1125v59q76 21 76 181v17h-76v197h197v-171q0 -263 -197 -283z" />
<glyph unicode="&#x14a;" horiz-adv-x="1513" d="M1322 1480v-1572q0 -154 -85 -241t-236 -87q-73 0 -148 21v154q62 -27 146 -27q77 0 110.5 50.5t33.5 166.5v15l-772 1183v-1143h-180v1480h206l745 -1143v1143h180z" />
<glyph unicode="&#x14b;" horiz-adv-x="1271" d="M197 0v1086h197v-204q156 228 382 228q142 0 225.5 -89.5t83.5 -240.5v-872q0 -154 -84.5 -241t-236.5 -87q-73 0 -148 21v154q63 -27 126 -27q79 0 112.5 50t33.5 167v771q0 121 -35.5 172.5t-117.5 51.5q-181 0 -341 -237v-703h-197z" />
<glyph unicode="&#x14c;" horiz-adv-x="1591" d="M796 -37q-315 0 -503.5 211.5t-188.5 565.5t188.5 565.5t503.5 211.5t503.5 -211.5t188.5 -565.5t-188.5 -565.5t-503.5 -211.5zM796 120q221 0 345 164.5t124 457.5q0 291 -124 454.5t-345 163.5t-345 -163.5t-124 -454.5q0 -293 124 -457.5t345 -164.5zM475 1604v148 h642v-148h-642z" />
<glyph unicode="&#x14d;" horiz-adv-x="1258" d="M629 -25q-239 0 -378.5 153t-139.5 415t139.5 414.5t378.5 152.5t378.5 -152.5t139.5 -414.5t-139.5 -415t-378.5 -153zM629 123q147 0 228 110t81 310t-81 309.5t-228 109.5t-227.5 -109.5t-80.5 -309.5t80.5 -310t227.5 -110zM308 1283v148h642v-148h-642z" />
<glyph unicode="&#x14e;" horiz-adv-x="1591" d="M796 -37q-315 0 -503.5 211.5t-188.5 565.5t188.5 565.5t503.5 211.5t503.5 -211.5t188.5 -565.5t-188.5 -565.5t-503.5 -211.5zM796 120q221 0 345 164.5t124 457.5q0 291 -124 454.5t-345 163.5t-345 -163.5t-124 -454.5q0 -293 124 -457.5t345 -164.5zM463 1900h123 q32 -148 210 -148t210 148h123q-15 -134 -106 -215t-227 -81t-226.5 80.5t-106.5 215.5z" />
<glyph unicode="&#x14f;" horiz-adv-x="1258" d="M629 -25q-239 0 -378.5 153t-139.5 415t139.5 414.5t378.5 152.5t378.5 -152.5t139.5 -414.5t-139.5 -415t-378.5 -153zM629 123q147 0 228 110t81 310t-81 309.5t-228 109.5t-227.5 -109.5t-80.5 -309.5t80.5 -310t227.5 -110zM296 1579h123q32 -148 210 -148t210 148 h123q-15 -134 -106 -215t-227 -81t-226.5 80.5t-106.5 215.5z" />
<glyph unicode="&#x150;" horiz-adv-x="1591" d="M796 -37q-315 0 -503.5 211.5t-188.5 565.5t188.5 565.5t503.5 211.5t503.5 -211.5t188.5 -565.5t-188.5 -565.5t-503.5 -211.5zM796 120q221 0 345 164.5t124 457.5q0 291 -124 454.5t-345 163.5t-345 -163.5t-124 -454.5q0 -293 124 -457.5t345 -164.5zM565 1604 l241 321h191l-321 -321h-111zM917 1604l240 321h191l-320 -321h-111z" />
<glyph unicode="&#x151;" horiz-adv-x="1258" d="M629 -25q-239 0 -378.5 153t-139.5 415t139.5 414.5t378.5 152.5t378.5 -152.5t139.5 -414.5t-139.5 -415t-378.5 -153zM629 123q147 0 228 110t81 310t-81 309.5t-228 109.5t-227.5 -109.5t-80.5 -309.5t80.5 -310t227.5 -110zM398 1283l241 321h191l-321 -321h-111z M750 1283l240 321h191l-320 -321h-111z" />
<glyph unicode="&#x152;" horiz-adv-x="2048" d="M1129 58q-156 -95 -347 -95q-304 0 -491 214.5t-187 562.5q0 353 188 565t501 212q181 0 336 -94v57h827v-157h-617v-475h517v-155l-516 -1l-1 -535h660v-157h-870v58zM1129 569v342q0 234 -80.5 341.5t-255.5 107.5q-219 0 -342.5 -164.5t-123.5 -455.5q0 -292 124 -456 t345 -164q173 0 253 108t80 341z" />
<glyph unicode="&#x153;" horiz-adv-x="1901" d="M979 174q-130 -199 -359 -199q-232 0 -370.5 154.5t-138.5 413.5t138.5 413t372.5 154q218 0 352 -200q122 200 365 200q417 0 417 -598h-673q29 -389 365 -389q140 0 308 71v-157q-193 -62 -350 -62q-150 0 -249.5 46.5t-177.5 152.5zM624 123q258 0 258 437 q0 402 -258 402q-143 0 -223 -110.5t-80 -308.5t80 -309t223 -111zM1090 648h456q0 315 -214 315q-217 0 -242 -315z" />
<glyph unicode="&#x154;" horiz-adv-x="1295" d="M191 0v1480h448q213 0 326.5 -94t113.5 -273q0 -141 -78.5 -251t-220.5 -169l494 -693h-258l-421 626h-196v-626h-208zM399 783h68q194 0 295 79t101 231q0 230 -332 230h-132v-540zM473 1604l241 321h228l-321 -321h-148z" />
<glyph unicode="&#x155;" horiz-adv-x="838" d="M197 0v1086h197v-204q117 228 340 228q30 0 63 -5v-184q-51 17 -90 17q-187 0 -313 -222v-716h-197zM324 1283l241 321h228l-321 -321h-148z" />
<glyph unicode="&#x156;" horiz-adv-x="1295" d="M191 0v1480h448q213 0 326.5 -94t113.5 -273q0 -141 -78.5 -251t-220.5 -169l494 -693h-258l-421 626h-196v-626h-208zM399 783h68q194 0 295 79t101 231q0 230 -332 230h-132v-540zM600 0h97l-60 -109q77 0 135.5 -47.5t58.5 -110.5q0 -69 -58.5 -117t-142.5 -48 q-72 0 -146 21v81q46 -15 105 -15q103 0 103 74q0 96 -187 96z" />
<glyph unicode="&#x157;" horiz-adv-x="838" d="M197 0v1086h197v-204q117 228 340 228q30 0 63 -5v-184q-51 17 -90 17q-187 0 -313 -222v-716h-197zM298 0h97l-60 -109q77 0 135.5 -47.5t58.5 -110.5q0 -69 -58.5 -117t-142.5 -48q-72 0 -146 21v81q46 -15 105 -15q103 0 103 74q0 96 -187 96z" />
<glyph unicode="&#x158;" horiz-adv-x="1295" d="M191 0v1480h448q213 0 326.5 -94t113.5 -273q0 -141 -78.5 -251t-220.5 -169l494 -693h-258l-421 626h-196v-626h-208zM399 783h68q194 0 295 79t101 231q0 230 -332 230h-132v-540zM945 1925l-241 -321h-218l-241 321h148l203 -202l201 202h148z" />
<glyph unicode="&#x159;" horiz-adv-x="838" d="M197 0v1086h197v-204q117 228 340 228q30 0 63 -5v-184q-51 17 -90 17q-187 0 -313 -222v-716h-197zM854 1604l-241 -321h-218l-241 321h148l203 -202l201 202h148z" />
<glyph unicode="&#x15a;" horiz-adv-x="1103" d="M100 28v208q250 -116 412 -116q123 0 198.5 65.5t75.5 170.5q0 87 -49.5 148t-182.5 136l-102 59q-189 108 -266.5 203.5t-77.5 221.5q0 172 124 282.5t316 110.5q171 0 361 -57v-192q-234 92 -349 92q-109 0 -180 -58t-71 -146q0 -74 52 -131t190 -136l106 -60 q192 -109 268 -206t76 -233q0 -193 -142 -310t-377 -117q-150 0 -382 65zM427 1604l241 321h228l-321 -321h-148z" />
<glyph unicode="&#x15b;" horiz-adv-x="1043" d="M157 38v181q193 -96 336 -96q85 0 141 46t56 115q0 101 -157 167l-115 49q-255 106 -255 305q0 142 100.5 223.5t275.5 81.5q91 0 225 -25l41 -8v-164q-165 49 -263 49q-86 0 -137.5 -37.5t-51.5 -100.5q0 -89 144 -150l95 -40q161 -68 228 -143.5t67 -188.5 q0 -143 -113 -235t-289 -92q-135 0 -328 63zM349 1283l241 321h228l-321 -321h-148z" />
<glyph unicode="&#x15c;" horiz-adv-x="1103" d="M100 28v208q250 -116 412 -116q123 0 198.5 65.5t75.5 170.5q0 87 -49.5 148t-182.5 136l-102 59q-189 108 -266.5 203.5t-77.5 221.5q0 172 124 282.5t316 110.5q171 0 361 -57v-192q-234 92 -349 92q-109 0 -180 -58t-71 -146q0 -74 52 -131t190 -136l106 -60 q192 -109 268 -206t76 -233q0 -193 -142 -310t-377 -117q-150 0 -382 65zM206 1604l241 321h218l241 -321h-148l-203 202l-201 -202h-148z" />
<glyph unicode="&#x15d;" horiz-adv-x="1043" d="M157 38v181q193 -96 336 -96q85 0 141 46t56 115q0 101 -157 167l-115 49q-255 106 -255 305q0 142 100.5 223.5t275.5 81.5q91 0 225 -25l41 -8v-164q-165 49 -263 49q-86 0 -137.5 -37.5t-51.5 -100.5q0 -89 144 -150l95 -40q161 -68 228 -143.5t67 -188.5 q0 -143 -113 -235t-289 -92q-135 0 -328 63zM175 1283l241 321h218l241 -321h-148l-203 202l-201 -202h-148z" />
<glyph unicode="&#x15e;" horiz-adv-x="1103" d="M100 28v208q250 -116 412 -116q123 0 198.5 65.5t75.5 170.5q0 87 -49.5 148t-182.5 136l-102 59q-189 108 -266.5 203.5t-77.5 221.5q0 172 124 282.5t316 110.5q171 0 361 -57v-192q-234 92 -349 92q-109 0 -180 -58t-71 -146q0 -74 52 -131t190 -136l106 -60 q192 -109 268 -206t76 -233q0 -193 -142 -310t-377 -117q-150 0 -382 65zM499 0h97l-60 -109q77 0 135.5 -47.5t58.5 -110.5q0 -69 -58.5 -117t-142.5 -48q-72 0 -146 21v81q46 -15 105 -15q103 0 103 74q0 96 -187 96z" />
<glyph unicode="&#x15f;" horiz-adv-x="1043" d="M157 38v181q193 -96 336 -96q85 0 141 46t56 115q0 101 -157 167l-115 49q-255 106 -255 305q0 142 100.5 223.5t275.5 81.5q91 0 225 -25l41 -8v-164q-165 49 -263 49q-86 0 -137.5 -37.5t-51.5 -100.5q0 -89 144 -150l95 -40q161 -68 228 -143.5t67 -188.5 q0 -143 -113 -235t-289 -92q-135 0 -328 63zM488 0h97l-60 -109q77 0 135.5 -47.5t58.5 -110.5q0 -69 -58.5 -117t-142.5 -48q-72 0 -146 21v81q46 -15 105 -15q103 0 103 74q0 96 -187 96z" />
<glyph unicode="&#x160;" horiz-adv-x="1103" d="M100 28v208q250 -116 412 -116q123 0 198.5 65.5t75.5 170.5q0 87 -49.5 148t-182.5 136l-102 59q-189 108 -266.5 203.5t-77.5 221.5q0 172 124 282.5t316 110.5q171 0 361 -57v-192q-234 92 -349 92q-109 0 -180 -58t-71 -146q0 -74 52 -131t190 -136l106 -60 q192 -109 268 -206t76 -233q0 -193 -142 -310t-377 -117q-150 0 -382 65zM924 1925l-241 -321h-218l-241 321h148l203 -202l201 202h148z" />
<glyph unicode="&#x161;" horiz-adv-x="1043" d="M157 38v181q193 -96 336 -96q85 0 141 46t56 115q0 101 -157 167l-115 49q-255 106 -255 305q0 142 100.5 223.5t275.5 81.5q91 0 225 -25l41 -8v-164q-165 49 -263 49q-86 0 -137.5 -37.5t-51.5 -100.5q0 -89 144 -150l95 -40q161 -68 228 -143.5t67 -188.5 q0 -143 -113 -235t-289 -92q-135 0 -328 63zM870 1604l-241 -321h-218l-241 321h148l203 -202l201 202h148z" />
<glyph unicode="&#x162;" horiz-adv-x="1295" d="M543 0v1323h-525v157h1260v-157h-525v-1323h-210zM622 0h97l-60 -109q77 0 135.5 -47.5t58.5 -110.5q0 -69 -58.5 -117t-142.5 -48q-72 0 -146 21v81q46 -15 105 -15q103 0 103 74q0 96 -187 96z" />
<glyph unicode="&#x163;" horiz-adv-x="766" d="M681 0q-91 -25 -158 -25q-150 0 -234 86t-84 239v638h-136v148h136v197l197 19v-216h284v-148h-284v-602q0 -213 184 -213q39 0 95 13v-136zM468 0h97l-60 -109q77 0 135.5 -47.5t58.5 -110.5q0 -69 -58.5 -117t-142.5 -48q-72 0 -146 21v81q46 -15 105 -15q103 0 103 74 q0 96 -187 96z" />
<glyph unicode="&#x164;" horiz-adv-x="1295" d="M543 0v1323h-525v157h1260v-157h-525v-1323h-210zM998 1925l-241 -321h-218l-241 321h148l203 -202l201 202h148z" />
<glyph unicode="&#x165;" horiz-adv-x="1180" d="M681 0q-91 -25 -158 -25q-150 0 -234 86t-84 239v638h-136v148h136v197l197 19v-216h284v-148h-284v-602q0 -213 184 -213q39 0 95 13v-136zM576 1258v59q76 21 76 181v17h-76v197h197v-171q0 -263 -197 -283z" />
<glyph unicode="&#x166;" horiz-adv-x="1295" d="M753 0h-210v715h-303v148h303v460h-525v157h1260v-157h-525v-460h303v-148h-303v-715z" />
<glyph unicode="&#x167;" horiz-adv-x="766" d="M681 136v-136q-91 -25 -158 -25q-150 0 -234 86t-84 239v268h-185v123h185v247h-136v148h136v197l197 19v-216h284v-148h-284v-247h284v-123h-284v-232q0 -213 184 -213q39 0 95 13z" />
<glyph unicode="&#x168;" horiz-adv-x="1419" d="M179 1480h210v-934q0 -223 82.5 -324.5t262.5 -101.5q176 0 249.5 95.5t73.5 323.5v941h184v-938q0 -194 -38 -298t-137 -183q-124 -98 -341 -98q-281 0 -413.5 142t-132.5 443v932zM377 1604q11 234 185 234q73 0 135 -38l60 -37q56 -35 85 -35q69 0 78 110h123 q-11 -234 -185 -234q-73 0 -135 39l-60 37q-56 34 -85 34q-69 0 -78 -110h-123z" />
<glyph unicode="&#x169;" horiz-adv-x="1271" d="M876 0v204q-157 -229 -381 -229q-142 0 -226 89.5t-84 241.5v780h197v-716q0 -122 35.5 -173.5t118.5 -51.5q180 0 340 237v704h197v-1086h-197zM296 1283q11 234 185 234q73 0 135 -38l60 -37q56 -35 85 -35q69 0 78 110h123q-11 -234 -185 -234q-73 0 -135 39l-60 37 q-56 34 -85 34q-69 0 -78 -110h-123z" />
<glyph unicode="&#x16a;" horiz-adv-x="1419" d="M179 1480h210v-934q0 -223 82.5 -324.5t262.5 -101.5q176 0 249.5 95.5t73.5 323.5v941h184v-938q0 -194 -38 -298t-137 -183q-124 -98 -341 -98q-281 0 -413.5 142t-132.5 443v932zM402 1604v148h642v-148h-642z" />
<glyph unicode="&#x16b;" horiz-adv-x="1271" d="M876 0v204q-157 -229 -381 -229q-142 0 -226 89.5t-84 241.5v780h197v-716q0 -122 35.5 -173.5t118.5 -51.5q180 0 340 237v704h197v-1086h-197zM308 1283v148h642v-148h-642z" />
<glyph unicode="&#x16c;" horiz-adv-x="1419" d="M179 1480h210v-934q0 -223 82.5 -324.5t262.5 -101.5q176 0 249.5 95.5t73.5 323.5v941h184v-938q0 -194 -38 -298t-137 -183q-124 -98 -341 -98q-281 0 -413.5 142t-132.5 443v932zM390 1900h123q32 -148 210 -148t210 148h123q-15 -134 -106 -215t-227 -81t-226.5 80.5 t-106.5 215.5z" />
<glyph unicode="&#x16d;" horiz-adv-x="1271" d="M876 0v204q-157 -229 -381 -229q-142 0 -226 89.5t-84 241.5v780h197v-716q0 -122 35.5 -173.5t118.5 -51.5q180 0 340 237v704h197v-1086h-197zM296 1579h123q32 -148 210 -148t210 148h123q-15 -134 -106 -215t-227 -81t-226.5 80.5t-106.5 215.5z" />
<glyph unicode="&#x16e;" horiz-adv-x="1419" d="M179 1480h210v-934q0 -223 82.5 -324.5t262.5 -101.5q176 0 249.5 95.5t73.5 323.5v941h184v-938q0 -194 -38 -298t-137 -183q-124 -98 -341 -98q-281 0 -413.5 142t-132.5 443v932zM710 1579q-95 0 -161 66t-66 161q0 94 66 160.5t161 66.5q94 0 160.5 -66t66.5 -161 t-66 -161t-161 -66zM710 1665q59 0 100 41t41 100t-41.5 100t-99.5 41q-59 0 -100 -41t-41 -100q0 -58 41 -99.5t100 -41.5z" />
<glyph unicode="&#x16f;" horiz-adv-x="1271" d="M876 0v204q-157 -229 -381 -229q-142 0 -226 89.5t-84 241.5v780h197v-716q0 -122 35.5 -173.5t118.5 -51.5q180 0 340 237v704h197v-1086h-197zM629 1283q-95 0 -161 66t-66 161q0 94 66 160.5t161 66.5q94 0 160.5 -66t66.5 -161t-66 -161t-161 -66zM629 1369 q59 0 100 41t41 100t-41.5 100t-99.5 41q-59 0 -100 -41t-41 -100q0 -58 41 -99.5t100 -41.5z" />
<glyph unicode="&#x170;" horiz-adv-x="1419" d="M179 1480h210v-934q0 -223 82.5 -324.5t262.5 -101.5q176 0 249.5 95.5t73.5 323.5v941h184v-938q0 -194 -38 -298t-137 -183q-124 -98 -341 -98q-281 0 -413.5 142t-132.5 443v932zM492 1604l241 321h191l-321 -321h-111zM844 1604l240 321h191l-320 -321h-111z" />
<glyph unicode="&#x171;" horiz-adv-x="1271" d="M876 0v204q-157 -229 -381 -229q-142 0 -226 89.5t-84 241.5v780h197v-716q0 -122 35.5 -173.5t118.5 -51.5q180 0 340 237v704h197v-1086h-197zM382 1283l241 321h191l-321 -321h-111zM734 1283l240 321h191l-320 -321h-111z" />
<glyph unicode="&#x172;" horiz-adv-x="1419" d="M179 1480h210v-934q0 -223 82.5 -324.5t262.5 -101.5q176 0 249.5 95.5t73.5 323.5v941h184v-938q0 -194 -38 -298t-137 -183q-124 -98 -341 -98q-281 0 -413.5 142t-132.5 443v932zM829 0h107q-128 -77 -128 -178q0 -97 113 -97q57 0 92 15v-81q-60 -29 -138 -29 q-92 0 -148 44t-56 115q0 125 158 211z" />
<glyph unicode="&#x173;" horiz-adv-x="1271" d="M876 0v204q-157 -229 -381 -229q-142 0 -226 89.5t-84 241.5v780h197v-716q0 -122 35.5 -173.5t118.5 -51.5q180 0 340 237v704h197v-1086h-197zM875 0h107q-128 -77 -128 -178q0 -97 113 -97q57 0 92 15v-81q-60 -29 -138 -29q-92 0 -148 44t-56 115q0 125 158 211z" />
<glyph unicode="&#x174;" horiz-adv-x="1752" d="M383 0l-381 1480h202l303 -1169l279 1169h202l264 -1153l326 1153h171l-415 -1480h-209l-261 1141l-273 -1141h-208zM537 1604l241 321h218l241 -321h-148l-203 202l-201 -202h-148z" />
<glyph unicode="&#x175;" horiz-adv-x="1578" d="M323 0l-311 1086h193l238 -841l257 841h197l225 -841l273 841h169l-354 -1086h-198l-230 841l-260 -841h-199zM448 1283l241 321h218l241 -321h-148l-203 202l-201 -202h-148z" />
<glyph unicode="&#x176;" horiz-adv-x="1276" d="M511 0v618l-494 862h240l384 -668l414 668h195l-529 -858v-622h-210zM306 1604l241 321h218l241 -321h-148l-203 202l-201 -202h-148z" />
<glyph unicode="&#x177;" horiz-adv-x="1070" d="M260 -395l176 395l-420 1086h213l311 -818l332 818h186l-593 -1481h-205zM200 1283l241 321h218l241 -321h-148l-203 202l-201 -202h-148z" />
<glyph unicode="&#x178;" horiz-adv-x="1276" d="M511 0v618l-494 862h240l384 -668l414 668h195l-529 -858v-622h-210zM350 1604v173h173v-173h-173zM745 1604v173h173v-173h-173z" />
<glyph unicode="&#x179;" horiz-adv-x="1239" d="M95 0v168l795 1155h-746v157h998v-157l-795 -1155h795v-168h-1047zM483 1604l241 321h228l-321 -321h-148z" />
<glyph unicode="&#x17a;" horiz-adv-x="1175" d="M123 0v148l672 790h-641v148h884v-148l-672 -790h685v-148h-928zM414 1283l241 321h228l-321 -321h-148z" />
<glyph unicode="&#x17b;" horiz-adv-x="1238" d="M95 0v168l795 1155h-746v157h998v-157l-795 -1155h795v-168h-1047zM545 1604v197h197v-197h-197z" />
<glyph unicode="&#x17c;" horiz-adv-x="1174" d="M123 0v148l672 790h-641v148h884v-148l-672 -790h685v-148h-928zM488 1283v197h197v-197h-197z" />
<glyph unicode="&#x17d;" horiz-adv-x="1239" d="M95 0v168l795 1155h-746v157h998v-157l-795 -1155h795v-168h-1047zM1004 1925l-241 -321h-218l-241 321h148l203 -202l201 202h148z" />
<glyph unicode="&#x17e;" horiz-adv-x="1175" d="M123 0v148l672 790h-641v148h884v-148l-672 -790h685v-148h-928zM935 1604l-241 -321h-218l-241 321h148l203 -202l201 202h148z" />
<glyph unicode="&#x17f;" horiz-adv-x="714" d="M234 0v938h-154v148h154v130q0 388 354 388q99 0 225 -33v-156q-133 41 -213 41q-97 0 -132.5 -46.5t-35.5 -172.5v-1237h-198z" />
<glyph unicode="&#x180;" horiz-adv-x="1289" d="M394 882q121 228 363 228q196 0 308.5 -143t112.5 -391q0 -270 -127.5 -435.5t-335.5 -165.5q-193 0 -321 148l-24 -135h-173v1246h-197v123h197v222h197v-222h260v-123h-260v-352zM394 259q152 -136 290 -136q136 0 210 113.5t74 319.5q0 382 -252 382q-165 0 -322 -179 v-500z" />
<glyph unicode="&#x181;" horiz-adv-x="1431" d="M445 0v1326h-17q-140 0 -194 -35.5t-54 -127.5q0 -78 30 -145h-163q-22 79 -22 146q0 170 97.5 243t322.5 73h384q222 0 340.5 -84t118.5 -242q0 -128 -79 -228t-225 -155q363 -111 363 -401q0 -130 -80 -231q-61 -77 -147 -108t-239 -31h-436zM653 157h43q231 0 299 29 q130 55 130 204q0 132 -118 219.5t-295 87.5h-59v-540zM653 830h67q169 0 261 72t92 205q0 216 -338 216h-82v-493z" />
<glyph unicode="&#x182;" horiz-adv-x="1191" d="M191 0v1480h827v-154h-617v-481h113q176 0 256 -14.5t152 -60.5q170 -108 170 -319q0 -247 -193 -368q-132 -83 -439 -83h-269zM401 154h74q216 0 301 62q106 78 106 221q0 134 -89.5 194t-288.5 60h-103v-537z" />
<glyph unicode="&#x183;" horiz-adv-x="1289" d="M197 -12v1591h784v-148h-586l-1 -549q121 228 363 228q196 0 308.5 -143t112.5 -391q0 -270 -127.5 -435.5t-335.5 -165.5q-193 0 -321 148l-24 -135h-173zM394 259q152 -136 290 -136q136 0 210 113.5t74 319.5q0 382 -252 382q-165 0 -322 -179v-500z" />
<glyph unicode="&#x184;" horiz-adv-x="1166" d="M191 0v1480h210v-635h113q176 0 256 -14.5t152 -60.5q170 -108 170 -319q0 -247 -193 -368q-132 -83 -439 -83h-269zM401 154h74q216 0 301 62q106 78 106 221q0 134 -89.5 194t-288.5 60h-103v-537z" />
<glyph unicode="&#x185;" horiz-adv-x="1012" d="M204 0v1086h197v-438h70q449 0 449 -316q0 -332 -478 -332h-238zM401 148h54q255 0 255 180q0 165 -252 165h-57v-345z" />
<glyph unicode="&#x186;" horiz-adv-x="1417" d="M114 1404q219 113 478 113q345 0 533 -202t188 -574q0 -371 -191.5 -574.5t-540.5 -203.5q-198 0 -465 66v196q304 -105 469 -105q241 0 373 163t132 460q0 284 -141 447t-386 163q-209 0 -449 -128v179z" />
<glyph unicode="&#x187;" horiz-adv-x="1417" d="M1303 256v-180q-219 -113 -478 -113q-345 0 -533 202t-188 574q0 370 191 574t538 204q155 0 314 -30v12q0 210 75.5 305.5t241.5 95.5q66 0 146 -21v-163q-68 30 -146 30q-91 0 -127 -54.5t-36 -194.5v-242q-304 105 -469 105q-241 0 -373 -163t-132 -460 q0 -284 141 -447t386 -163q209 0 449 129z" />
<glyph unicode="&#x188;" horiz-adv-x="1090" d="M791 1102v119q0 383 302 383q76 0 158 -20v-149q-65 27 -141 27q-97 0 -134 -52.5t-37 -193.5v-306q-167 49 -272 49q-152 0 -243 -113.5t-91 -302.5q0 -183 94 -296t246 -113q135 0 278 69v-170q-191 -58 -330 -58q-220 0 -365 163t-145 411q0 266 143.5 413.5 t402.5 147.5q62 0 134 -8z" />
<glyph unicode="&#x189;" horiz-adv-x="1534" d="M192 0v679h-222v157h222v644h492q221 0 356 -49t234 -166q157 -186 157 -490q0 -343 -184 -556q-100 -117 -231 -168t-329 -51h-495zM402 157h269q289 0 408 155q129 165 129 443q0 261 -127 410q-77 91 -184 124.5t-322 33.5h-173v-487h333v-157h-333v-522z" />
<glyph unicode="&#x18a;" horiz-adv-x="1787" d="M445 0v1326h-17q-140 0 -194 -35.5t-54 -127.5q0 -78 30 -145h-163q-22 79 -22 146q0 170 97.5 243t322.5 73h492q220 0 355.5 -49t234.5 -166q157 -186 157 -490q0 -343 -184 -556q-100 -117 -231.5 -168t-328.5 -51h-495zM655 157h269q288 0 408 155q129 165 129 443 q0 261 -127 410q-77 91 -184 124.5t-322 33.5h-173v-1166z" />
<glyph unicode="&#x18b;" horiz-adv-x="1190" d="M1000 0h-269q-307 0 -439 83q-193 121 -193 368q0 211 169 319q73 46 153 60.5t255 14.5h114v481h-617v154h827v-1480zM790 154v537h-103q-200 0 -289 -60t-89 -195q0 -142 106 -220q84 -62 300 -62h75z" />
<glyph unicode="&#x18c;" horiz-adv-x="1289" d="M894 0v204q-120 -229 -362 -229q-196 0 -308.5 143t-112.5 391q0 271 127.5 436t335.5 165q193 0 320 -148v469h-586v148h784v-1579h-198zM894 827q-153 135 -290 135q-135 0 -209 -113t-74 -320q0 -381 252 -381q164 0 321 179v500z" />
<glyph unicode="&#x18d;" horiz-adv-x="1209" d="M719 602q182 -95 262 -177.5t80 -175.5q0 -128 -123.5 -201t-342.5 -73q-139 0 -256 29v164q128 -45 277 -45q112 0 180 30t68 79q0 74 -177 178l-94 54l-108 66q-198 119 -286 250t-88 305q0 227 138.5 373t355.5 146q212 0 352.5 -142.5t140.5 -358.5q0 -354 -379 -501 zM572 698q316 110 316 409q0 149 -83 249t-207 100q-119 0 -198 -104.5t-79 -260.5q0 -134 55 -220t196 -173z" />
<glyph unicode="&#x18e;" horiz-adv-x="1110" d="M919 1480v-1480h-826v157h617v475h-518v155h518v536h-661v157h870z" />
<glyph unicode="&#x18f;" horiz-adv-x="1388" d="M125 1423q212 94 444 94q336 0 525.5 -206.5t189.5 -571.5q0 -347 -174.5 -561.5t-456.5 -214.5q-539 0 -539 708l1 82h958q0 255 -141.5 423.5t-356.5 168.5q-222 0 -450 -110v188zM1057 586h-718v-18q0 -451 321 -451q152 0 259.5 127t137.5 342z" />
<glyph unicode="&#x190;" horiz-adv-x="1079" d="M1012 10q-188 -47 -342 -47q-242 0 -382 120t-140 327q0 135 74 245t203 165q-234 141 -234 360q0 161 114.5 249.5t322.5 88.5q197 0 359 -59v-163q-161 67 -320 67q-117 0 -189 -61.5t-72 -161.5q0 -126 95.5 -195t270.5 -69h24v-154h-25q-182 0 -291.5 -86 t-109.5 -228q0 -129 88 -210t228 -81q120 0 326 77v-184z" />
<glyph unicode="&#x191;" horiz-adv-x="1098" d="M-98 -393v160q72 -32 144 -32q90 0 118 46t28 191v1508h827v-157h-617v-496h518v-155h-518v-692q0 -210 -73.5 -305t-234.5 -95q-103 0 -192 27z" />
<glyph unicode="&#x192;" horiz-adv-x="800" d="M-98 -387v157q132 -41 212 -41q97 0 133 46t36 172v991h-173v148h173v130q0 388 353 388q100 0 225 -33v-156q-132 41 -212 41q-97 0 -133 -46.5t-36 -172.5v-151h272v-148h-272v-970q0 -387 -353 -387q-100 0 -225 32z" />
<glyph unicode="&#x193;" horiz-adv-x="1480" d="M1303 40q-269 -77 -469 -77q-353 0 -541.5 200.5t-188.5 576.5q0 369 191 573t538 204q155 0 314 -30v12q0 210 75.5 305.5t241.5 95.5q66 0 146 -21v-163q-68 30 -146 30q-91 0 -127 -54.5t-36 -194.5v-241q-306 104 -469 104q-240 0 -372.5 -162.5t-132.5 -458.5 q0 -293 142 -456t398 -163q105 0 227 37v482h209v-599z" />
<glyph unicode="&#x194;" horiz-adv-x="1346" d="M781 289l12 -19q66 -103 114 -230t48 -199q0 -111 -81.5 -185.5t-203.5 -74.5q-116 0 -189 66.5t-73 171.5q0 153 154 411l17 28l-567 1222h218l457 -982l460 982h187zM671 94q-9 -19 -13 -28q-78 -164 -78 -238q0 -99 91 -99q99 0 99 106q0 77 -99 259z" />
<glyph unicode="&#x195;" horiz-adv-x="1863" d="M1505 1086h214q32 -128 32 -295q0 -371 -154 -593.5t-411 -222.5q-130 0 -211 75q-51 47 -69 111t-18 197v358q0 121 -35.5 172.5t-117.5 51.5q-181 0 -341 -237v-703h-197v1579h197v-697q156 228 382 228q142 0 225.5 -89.5t83.5 -240.5v-407q0 -125 37 -178t123 -53 q148 0 234.5 153t86.5 415q0 229 -61 376z" />
<glyph unicode="&#x196;" horiz-adv-x="820" d="M753 7q-124 -44 -231 -44q-156 0 -243 89q-60 62 -83 150.5t-23 261.5v1016h210v-1000q0 -207 40 -275.5t160 -68.5q65 0 170 36v-165z" />
<glyph unicode="&#x197;" horiz-adv-x="753" d="M272 709h-247v155h247v616h210v-616h246v-155h-246v-709h-210v709z" />
<glyph unicode="&#x198;" horiz-adv-x="1360" d="M191 0v1480h198v-725q197 352 415 548t414 196q105 0 192 -53v-181q-108 79 -203 79q-127 0 -292 -152.5t-312 -404.5l698 -787h-271l-641 749v-749h-198z" />
<glyph unicode="&#x199;" horiz-adv-x="1197" d="M394 559l460 527h212l-439 -507l530 -579h-252l-511 557v-557h-197v984q0 620 501 620q131 0 264 -42v-173q-134 67 -275 67q-158 0 -225.5 -117t-67.5 -392v-388z" />
<glyph unicode="&#x19a;" horiz-adv-x="740" d="M272 728h-247v148h247v703h197v-703h247v-148h-247v-728h-197v728z" />
<glyph unicode="&#x19b;" horiz-adv-x="1217" d="M499 985l-58 137l-249 -109l-50 113l250 109q-16 29 -24 43q-40 74 -88.5 101t-139.5 27h-29v173h37q181 0 266 -53.5t157 -211.5l249 109l50 -113l-249 -109l327 -748q97 -220 201 -395l34 -58h-222q-102 169 -185 358l-185 418l-356 -776h-190z" />
<glyph unicode="&#x19c;" horiz-adv-x="2178" d="M1987 1480v-1480h-210v216q-180 -253 -442 -253q-270 0 -346 272q-195 -272 -467 -272q-180 0 -274 129q-75 102 -75 364v1024h210v-1030q0 -161 42.5 -228.5t145.5 -67.5q214 0 404 278v1048h210v-1030q0 -160 45.5 -228t153.5 -68q102 0 207.5 74.5t185.5 203.5v1048 h210z" />
<glyph unicode="&#x19d;" horiz-adv-x="1513" d="M372 -92q0 -155 -82.5 -241t-230.5 -86q-73 0 -147 20v155q63 -28 126 -28q84 0 119 50t35 168v1534h206l745 -1143v1143h180v-1480h-205l-746 1143v-1235z" />
<glyph unicode="&#x19e;" horiz-adv-x="1271" d="M197 0v1086h197v-204q156 228 382 228q142 0 225.5 -89.5t83.5 -240.5v-1175h-197v1111q0 121 -35.5 172.5t-117.5 51.5q-181 0 -341 -237v-703h-197z" />
<glyph unicode="&#x19f;" horiz-adv-x="1592" d="M796 -37q-315 0 -503.5 211.5t-188.5 565.5t188.5 565.5t503.5 211.5t503.5 -211.5t188.5 -565.5t-188.5 -565.5t-503.5 -211.5zM328 685q18 -276 137.5 -420.5t330.5 -144.5t331 144.5t137 420.5h-936zM331 845h930q-22 246 -143.5 380.5t-321.5 134.5t-321.5 -134.5 t-143.5 -380.5z" />
<glyph unicode="&#x1a0;" horiz-adv-x="1591" d="M1433 1789q21 -80 21 -147q0 -220 -196 -292q230 -209 230 -610q0 -354 -188.5 -565.5t-503.5 -211.5t-503.5 211.5t-188.5 565.5q0 355 188.5 566t504.5 211q123 0 237 -37h17q140 0 194.5 36t54.5 128q0 78 -30 145h163zM796 120q221 0 345 164.5t124 457.5 q0 291 -124 454.5t-345 163.5t-345 -163.5t-124 -454.5q0 -293 124 -457.5t345 -164.5z" />
<glyph unicode="&#x1a1;" horiz-adv-x="1283" d="M1012 954q135 -168 135 -412q0 -261 -139.5 -414t-378.5 -153t-378.5 153t-139.5 415q0 261 139.5 414t377.5 153q88 0 176 -24h32q141 0 193.5 36.5t52.5 135.5q0 75 -27 139h149q20 -82 20 -158q0 -224 -212 -285zM629 123q147 0 228 110t81 310t-81 309.5t-228 109.5 t-227.5 -109.5t-80.5 -309.5t80.5 -310t227.5 -110z" />
<glyph unicode="&#x1a2;" horiz-adv-x="2171" d="M1789 -395v1434q0 171 -41.5 241.5t-142.5 70.5q-118 0 -257 -100q145 -213 145 -514q0 -352 -190 -563t-507 -211q-312 0 -501.5 214t-189.5 566q0 353 189.5 563.5t506.5 210.5q266 0 446 -154l15 13q168 142 366 142q371 0 371 -436v-1477h-210zM798 117 q223 0 348 164t125 457t-125.5 459t-346.5 166q-222 0 -347 -165t-125 -457q0 -296 124 -460t347 -164z" />
<glyph unicode="&#x1a3;" horiz-adv-x="1827" d="M629 123q145 0 227 112.5t82 312.5q0 195 -82 305t-228 110q-148 0 -227.5 -110t-79.5 -313q0 -196 81.5 -306.5t226.5 -110.5zM1444 -395v1004q0 215 -40 268q-51 67 -140 67q-91 0 -191 -84q75 -146 75 -318q0 -258 -140.5 -412.5t-376.5 -154.5q-242 0 -381 152.5 t-139 417.5q0 259 139 412.5t374 153.5q218 0 361 -131l15 14q127 117 284 117q358 0 358 -439v-1067h-198z" />
<glyph unicode="&#x1a4;" horiz-adv-x="1386" d="M445 0v1326h-17q-140 0 -194 -35.5t-54 -127.5q0 -78 30 -145h-163q-22 79 -22 146q0 170 97.5 243t322.5 73h403q174 0 268.5 -28.5t154.5 -100.5q79 -95 79 -259q0 -236 -160 -370t-444 -134h-93v-588h-208zM653 747h85q187 0 289 86t102 244q0 132 -80.5 189 t-266.5 57h-129v-576z" />
<glyph unicode="&#x1a5;" horiz-adv-x="1289" d="M197 -395v1379q0 620 501 620q131 0 264 -42v-173q-134 67 -275 67q-158 0 -225.5 -117t-67.5 -392v-65q121 228 363 228q196 0 308.5 -143t112.5 -391q0 -270 -127.5 -435.5t-335.5 -165.5q-193 0 -321 148v-518h-197zM394 259q152 -136 290 -136q136 0 210 113.5 t74 319.5q0 382 -252 382q-165 0 -322 -179v-500z" />
<glyph unicode="&#x1a6;" horiz-adv-x="1301" d="M191 0v1678h210v-198h239q214 0 326.5 -93t112.5 -272q0 -141 -77.5 -250.5t-219.5 -168.5l494 -998h-236l-444 931h-195v-629h-210zM401 783h66q192 0 291 79.5t99 232.5q0 231 -325 231h-131v-543z" />
<glyph unicode="&#x1a7;" horiz-adv-x="1103" d="M1003 28q-232 -65 -380 -65q-237 0 -379 116.5t-142 311.5q0 135 76 232t267 206l107 60q138 79 190 136t52 131q0 89 -71.5 146.5t-180.5 57.5q-114 0 -348 -92v192q190 57 361 57q192 0 316 -110.5t124 -281.5q0 -127 -77 -222.5t-267 -203.5l-102 -59 q-133 -75 -183 -136t-50 -148q0 -106 76.5 -171t200.5 -65q160 0 410 116v-208z" />
<glyph unicode="&#x1a8;" horiz-adv-x="1043" d="M887 38q-193 -63 -329 -63q-176 0 -288.5 92t-112.5 235q0 113 67 188.5t228 143.5l95 40q143 61 143 150q0 138 -192 138q-94 0 -259 -49v164l41 8q134 25 226 25q174 0 274 -81.5t100 -223.5q0 -199 -254 -305l-116 -49q-156 -66 -156 -167q0 -69 56 -115t142 -46 q142 0 335 96v-181z" />
<glyph unicode="&#x1a9;" horiz-adv-x="1191" d="M49 0v185l573 557l-524 584v154h1018v-154h-739l497 -554l-606 -587h879v-185h-1098z" />
<glyph unicode="&#x1aa;" horiz-adv-x="1080" d="M1179 -386q-113 -34 -221 -34q-384 0 -384 519v895q-96 -68 -203 -68q-135 0 -234.5 101.5t-99.5 239.5q0 144 101 241t251 97q382 0 382 -523v-983q0 -208 43.5 -289.5t153.5 -81.5q89 0 211 48v-162zM574 1153v29q0 274 -196 274q-82 0 -137.5 -54.5t-55.5 -135.5 q0 -82 58 -137t144 -55q107 0 187 79z" />
<glyph unicode="&#x1ab;" horiz-adv-x="766" d="M212 -399v155q62 -27 125 -27q80 0 113.5 49.5t33.5 167.5v31q-279 32 -279 323v638h-136v148h136v197l197 19v-216h284v-148h-284v-602q0 -213 184 -213q39 0 95 13v-228q0 -154 -85 -240.5t-236 -86.5q-73 0 -148 20z" />
<glyph unicode="&#x1ac;" horiz-adv-x="1376" d="M1359 1480v-157h-525v-1323h-210v1323h-197q-139 0 -193.5 -35.5t-54.5 -127.5q0 -78 30 -145h-162q-22 81 -22 149q0 170 97.5 243t321.5 73h915z" />
<glyph unicode="&#x1ad;" horiz-adv-x="766" d="M402 1086h284v-148h-284v-602q0 -213 184 -213q39 0 95 13v-136q-91 -25 -158 -25q-150 0 -234 86t-84 239v638h-136v148h136v190q0 155 84.5 241.5t236.5 86.5q73 0 148 -21v-154q-63 27 -126 27q-79 0 -112.5 -49.5t-33.5 -167.5v-153z" />
<glyph unicode="&#x1ae;" horiz-adv-x="1295" d="M753 1323v-1351q0 -146 28 -191.5t117 -45.5q73 0 145 32v-160q-89 -27 -193 -27q-161 0 -234 95.5t-73 304.5v1343h-525v157h1260v-157h-525z" />
<glyph unicode="&#x1af;" horiz-adv-x="1685" d="M179 1480h210v-934q0 -223 82.5 -324.5t262.5 -101.5q176 0 249.5 95.5t73.5 323.5v941h196q144 0 198.5 35.5t54.5 128.5q0 78 -30 145h163q21 -80 21 -147q0 -166 -96 -241t-311 -75h-12v-784q0 -194 -38 -298t-137 -183q-124 -98 -341 -98q-281 0 -413.5 142 t-132.5 443v932z" />
<glyph unicode="&#x1b0;" horiz-adv-x="1498" d="M876 0v204q-157 -229 -381 -229q-142 0 -226 89.5t-84 241.5v780h197v-716q0 -122 35.5 -173.5t118.5 -51.5q180 0 340 237v704h197q141 0 193.5 36.5t52.5 135.5q0 75 -27 139h149q20 -82 20 -158q0 -301 -388 -301v-938h-197z" />
<glyph unicode="&#x1b1;" horiz-adv-x="1604" d="M1542 1480v-154h-407q358 -270 358 -678q0 -300 -194 -492.5t-497 -192.5t-497 192.5t-194 493.5q0 408 358 677h-407v154h611v-154q-340 -229 -340 -658q0 -260 124 -405.5t345 -145.5q219 0 344 145t125 397q0 438 -339 667v154h610z" />
<glyph unicode="&#x1b2;" horiz-adv-x="1462" d="M173 1480h210v-897q0 -139 18 -213t66 -135q94 -118 251 -118q192 0 304.5 158t112.5 426q0 185 -54 406t-137 373h248q50 -118 86 -317.5t36 -362.5q0 -395 -163.5 -616t-455.5 -221q-225 0 -367 132q-90 83 -122.5 193t-32.5 332v860z" />
<glyph unicode="&#x1b3;" horiz-adv-x="1308" d="M569 0v587q-48 160 -166 412q-87 185 -142 244t-140 59q-69 0 -157 -54v195q98 56 211 56t190 -59.5t162 -212.5q98 -176 176 -405l409 658h196l-529 -861v-618z" />
<glyph unicode="&#x1b4;" horiz-adv-x="1376" d="M418 0l-417 1086h214l307 -813l300 737l50 122q82 197 177.5 282t235.5 85q67 0 152 -24v-180q-86 36 -157 36q-84 0 -138.5 -63.5t-128.5 -248.5l-34 -85l-531 -1329h-207z" />
<glyph unicode="&#x1b5;" horiz-adv-x="1239" d="M95 0v168l360 524h-225v157h333l327 474h-746v157h998v-157l-326 -474h240v-157h-348l-361 -524h795v-168h-1047z" />
<glyph unicode="&#x1b6;" horiz-adv-x="1175" d="M1038 938l-262 -309h225v-123h-330l-305 -358h685v-148h-928v148l305 358h-225v123h330l262 309h-641v148h884v-148z" />
<glyph unicode="&#x1b7;" horiz-adv-x="1141" d="M93 14v186q187 -83 365 -83q147 0 236.5 79.5t89.5 209.5q0 141 -119.5 228.5t-311.5 87.5q-51 0 -124 -13v151l499 435h-623v185h858v-185l-488 -421q227 0 379 -130t152 -324q0 -213 -149 -335t-408 -122q-178 0 -356 51z" />
<glyph unicode="&#x1b8;" horiz-adv-x="1141" d="M1049 14q-178 -51 -358 -51q-258 0 -406.5 122t-148.5 335q0 194 152 324t379 130l-488 421v185h858v-185h-623l499 -435v-151q-73 13 -125 13q-191 0 -310.5 -88t-119.5 -228q0 -132 90 -210.5t241 -78.5q174 0 360 83v-186z" />
<glyph unicode="&#x1b9;" horiz-adv-x="1049" d="M969 -369q-204 -50 -350 -50q-232 0 -376 122.5t-144 320.5q0 192 140 313.5t384 142.5l-487 458v148h814v-161h-586l481 -445v-137h-15q-243 0 -382 -88t-139 -242q0 -131 86 -207.5t233 -76.5q139 0 341 69v-167z" />
<glyph unicode="&#x1ba;" horiz-adv-x="1061" d="M951 1086v-148l-453 -333q49 5 71 5q167 0 271.5 -82.5t104.5 -214.5q0 -113 -73 -184t-274 -153l-107 -44q-100 -41 -131.5 -65t-31.5 -59q0 -79 160 -79q154 0 352 81v-162q-166 -67 -341 -67q-178 0 -280 64t-102 176q0 86 74.5 153.5t245.5 137.5l119 48 q116 48 153.5 79t37.5 80q0 137 -290 137q-129 0 -234 -22v151l476 353h-575v148h827z" />
<glyph unicode="&#x1bb;" horiz-adv-x="1295" d="M408 173h643v-173h-881v173q82 192 328 419h-303v148h466q188 186 188 363q0 124 -74.5 195t-205.5 71q-153 0 -362 -119v174q197 93 392 93q207 0 333 -112t126 -296q0 -211 -172 -369h165v-148h-327q-13 -10 -19 -15q-17 -13 -23 -20q-237 -201 -274 -384z" />
<glyph unicode="&#x1bc;" horiz-adv-x="1295" d="M249 -6v176q147 -59 280 -59q146 0 229.5 86t83.5 237q0 162 -118 247.5t-341 85.5q-52 0 -109 -7v720h749v-172h-576v-390q285 0 445 -131t160 -363q0 -216 -145.5 -338.5t-401.5 -122.5q-114 0 -256 31z" />
<glyph unicode="&#x1bd;" horiz-adv-x="972" d="M167 -4v151q82 -24 185 -24q254 0 254 198q0 226 -334 226q-41 0 -86 -7v546h602v-173h-454v-219q226 0 354 -100.5t128 -278.5q0 -161 -117.5 -251.5t-325.5 -90.5q-90 0 -206 23z" />
<glyph unicode="&#x1be;" horiz-adv-x="938" d="M252 1209v370h197l1 -370h320v-148h-320l-1 -29q0 -97 22.5 -140.5t120.5 -137.5l46 -45q151 -145 194 -217t43 -176q0 -158 -111 -249.5t-303 -91.5q-172 0 -363 62v162q170 -76 335 -76q117 0 184 56.5t67 155.5q0 132 -168 287l-48 44q-126 118 -171 196.5t-45 184.5 v14h-203v148h203z" />
<glyph unicode="&#x1bf;" horiz-adv-x="1240" d="M197 -395v1481h197v-199q194 223 421 223q142 0 237 -94t95 -237q0 -216 -195 -424t-558 -378v-372h-197zM394 136l47 28q496 291 496 578q0 183 -184 183q-181 0 -359 -199v-590z" />
<glyph unicode="&#x1c0;" horiz-adv-x="580" d="M222 0v1579h136v-1579h-136z" />
<glyph unicode="&#x1c1;" horiz-adv-x="913" d="M222 0v1579h136v-1579h-136zM555 0v1579h136v-1579h-136z" />
<glyph unicode="&#x1c2;" horiz-adv-x="1320" d="M728 518v-518h-136v518h-444v123h444v297h-444v123h444v518h136v-518h444v-123h-444v-297h444v-123h-444z" />
<glyph unicode="&#x1c3;" horiz-adv-x="648" d="M225 0v197h197v-197h-197zM250 395l-25 789v296h197v-296l-24 -789h-148z" />
<glyph unicode="&#x1c4;" horiz-adv-x="2598" d="M191 0v1480h492q220 0 355.5 -49t234.5 -166q157 -186 157 -490q0 -343 -184 -556q-100 -117 -231.5 -168t-328.5 -51h-495zM401 157h269q288 0 408 155q129 165 129 443q0 261 -127 410q-77 91 -184 124.5t-322 33.5h-173v-1166zM1454 0v168l795 1155h-746v157h998v-157 l-795 -1155h795v-168h-1047zM2352 1925l-241 -321h-218l-241 321h148l203 -202l201 202h148z" />
<glyph unicode="&#x1c5;" horiz-adv-x="2633" d="M191 0v1480h492q220 0 355.5 -49t234.5 -166q157 -186 157 -490q0 -343 -184 -556q-100 -117 -231.5 -168t-328.5 -51h-495zM401 157h269q288 0 408 155q129 165 129 443q0 261 -127 410q-77 91 -184 124.5t-322 33.5h-173v-1166zM1582 0v148l672 790h-641v148h884v-148 l-672 -790h685v-148h-928z" />
<glyph unicode="&#x1c6;" horiz-adv-x="2340" d="M894 0v204q-120 -229 -362 -229q-196 0 -308.5 143t-112.5 391q0 271 127.5 436t335.5 165q193 0 320 -148v617h198v-1579h-198zM894 827q-153 135 -290 135q-135 0 -209 -113t-74 -320q0 -381 252 -381q164 0 321 179v500zM1289 0v148l672 790h-641v148h884v-148 l-672 -790h685v-148h-928z" />
<glyph unicode="&#x1c7;" horiz-adv-x="1707" d="M191 0v1480h210v-1323h666v-157h-876zM886 -275v186q120 -39 214 -39q118 0 165.5 69t47.5 239v1300h210v-1293q0 -483 -457 -483q-70 0 -180 21z" />
<glyph unicode="&#x1c8;" horiz-adv-x="1671" d="M191 0v1480h210v-1323h666v-157h-876zM895 -369v156q138 -58 210 -58q82 0 127 44q30 30 37.5 68t7.5 159v1086h198v-1086q0 -419 -354 -419q-105 0 -226 50zM1277 1283v197h198v-197h-198z" />
<glyph unicode="&#x1c9;" horiz-adv-x="1086" d="M197 0v1579h197v-1579h-197zM309 -369v156q138 -58 210 -58q82 0 127 44q30 30 37.5 68t7.5 159v1086h198v-1086q0 -419 -354 -419q-105 0 -226 50zM691 1283v197h198v-197h-198z" />
<glyph unicode="&#x1ca;" horiz-adv-x="2065" d="M191 0v1480h206l745 -1143v1143h180v-1480h-205l-746 1143v-1143h-180zM1244 -275v186q120 -39 214 -39q118 0 165.5 69t47.5 239v1300h210v-1293q0 -483 -457 -483q-70 0 -180 21z" />
<glyph unicode="&#x1cb;" horiz-adv-x="2025" d="M191 0v1480h206l745 -1143v1143h180v-1480h-205l-746 1143v-1143h-180zM1249 -369v156q138 -58 210 -58q82 0 127 44q30 30 37.5 68t7.5 159v1086h198v-1086q0 -419 -354 -419q-105 0 -226 50zM1631 1283v197h198v-197h-198z" />
<glyph unicode="&#x1cc;" horiz-adv-x="1777" d="M197 0v1086h197v-204q156 228 382 228q142 0 225.5 -89.5t83.5 -240.5v-780h-197v716q0 121 -35.5 172.5t-117.5 51.5q-181 0 -341 -237v-703h-197zM1000 -369v156q138 -58 210 -58q82 0 127 44q30 30 37.5 68t7.5 159v1086h198v-1086q0 -419 -354 -419q-105 0 -226 50z M1382 1283v197h198v-197h-198z" />
<glyph unicode="&#x1cd;" horiz-adv-x="1413" d="M17 0l587 1480h208l578 -1480h-227l-161 410h-627l-163 -410h-195zM436 566h505l-252 638zM1058 1925l-241 -321h-218l-241 321h148l203 -202l201 202h148z" />
<glyph unicode="&#x1ce;" horiz-adv-x="1131" d="M757 138q-177 -163 -341 -163q-135 0 -224 84.5t-89 213.5q0 178 149.5 273.5t429.5 95.5h46v131q0 189 -197 189q-153 0 -334 -96v163q199 81 375 81q181 0 267 -82.5t86 -254.5v-492q0 -169 104 -169q13 0 38 4l14 -109q-67 -32 -148 -32q-138 0 -176 163zM728 245v281 l-63 2q-164 0 -264.5 -61t-100.5 -162q0 -71 50 -120t122 -49q123 0 256 109zM925 1604l-241 -321h-218l-241 321h148l203 -202l201 202h148z" />
<glyph unicode="&#x1cf;" horiz-adv-x="590" d="M190 0v1480h210v-1480h-210zM645 1925l-241 -321h-218l-241 321h148l203 -202l201 202h148z" />
<glyph unicode="&#x1d0;" horiz-adv-x="592" d="M197 0v1086h197v-1086h-197zM646 1604l-241 -321h-218l-241 321h148l203 -202l201 202h148z" />
<glyph unicode="&#x1d1;" horiz-adv-x="1591" d="M796 -37q-315 0 -503.5 211.5t-188.5 565.5t188.5 565.5t503.5 211.5t503.5 -211.5t188.5 -565.5t-188.5 -565.5t-503.5 -211.5zM796 120q221 0 345 164.5t124 457.5q0 291 -124 454.5t-345 163.5t-345 -163.5t-124 -454.5q0 -293 124 -457.5t345 -164.5zM1146 1925 l-241 -321h-218l-241 321h148l203 -202l201 202h148z" />
<glyph unicode="&#x1d2;" horiz-adv-x="1258" d="M629 -25q-239 0 -378.5 153t-139.5 415t139.5 414.5t378.5 152.5t378.5 -152.5t139.5 -414.5t-139.5 -415t-378.5 -153zM629 123q147 0 228 110t81 310t-81 309.5t-228 109.5t-227.5 -109.5t-80.5 -309.5t80.5 -310t227.5 -110zM979 1604l-241 -321h-218l-241 321h148 l203 -202l201 202h148z" />
<glyph unicode="&#x1d3;" horiz-adv-x="1419" d="M179 1480h210v-934q0 -223 82.5 -324.5t262.5 -101.5q176 0 249.5 95.5t73.5 323.5v941h184v-938q0 -194 -38 -298t-137 -183q-124 -98 -341 -98q-281 0 -413.5 142t-132.5 443v932zM1073 1925l-241 -321h-218l-241 321h148l203 -202l201 202h148z" />
<glyph unicode="&#x1d4;" horiz-adv-x="1271" d="M876 0v204q-157 -229 -381 -229q-142 0 -226 89.5t-84 241.5v780h197v-716q0 -122 35.5 -173.5t118.5 -51.5q180 0 340 237v704h197v-1086h-197zM979 1604l-241 -321h-218l-241 321h148l203 -202l201 202h148z" />
<glyph unicode="&#x1d5;" horiz-adv-x="1419" d="M179 1480h210v-934q0 -223 82.5 -324.5t262.5 -101.5q176 0 249.5 95.5t73.5 323.5v941h184v-938q0 -194 -38 -298t-137 -183q-124 -98 -341 -98q-281 0 -413.5 142t-132.5 443v932zM439 1604v173h173v-173h-173zM834 1604v173h173v-173h-173zM402 1925v148h642v-148 h-642z" />
<glyph unicode="&#x1d6;" horiz-adv-x="1271" d="M876 0v204q-157 -229 -381 -229q-142 0 -226 89.5t-84 241.5v780h197v-716q0 -122 35.5 -173.5t118.5 -51.5q180 0 340 237v704h197v-1086h-197zM345 1283v173h173v-173h-173zM740 1283v173h173v-173h-173zM308 1604v148h642v-148h-642z" />
<glyph unicode="&#x1d7;" horiz-adv-x="1419" d="M179 1480h210v-934q0 -223 82.5 -324.5t262.5 -101.5q176 0 249.5 95.5t73.5 323.5v941h184v-938q0 -194 -38 -298t-137 -183q-124 -98 -341 -98q-281 0 -413.5 142t-132.5 443v932zM439 1604v173h173v-173h-173zM834 1604v173h173v-173h-173zM575 1925l241 321h228 l-321 -321h-148z" />
<glyph unicode="&#x1d8;" horiz-adv-x="1271" d="M876 0v204q-157 -229 -381 -229q-142 0 -226 89.5t-84 241.5v780h197v-716q0 -122 35.5 -173.5t118.5 -51.5q180 0 340 237v704h197v-1086h-197zM345 1283v173h173v-173h-173zM740 1283v173h173v-173h-173zM481 1604l241 321h228l-321 -321h-148z" />
<glyph unicode="&#x1d9;" horiz-adv-x="1419" d="M179 1480h210v-934q0 -223 82.5 -324.5t262.5 -101.5q176 0 249.5 95.5t73.5 323.5v941h184v-938q0 -194 -38 -298t-137 -183q-124 -98 -341 -98q-281 0 -413.5 142t-132.5 443v932zM439 1604v173h173v-173h-173zM834 1604v173h173v-173h-173zM1073 2246l-241 -321h-218 l-241 321h148l203 -202l201 202h148z" />
<glyph unicode="&#x1da;" horiz-adv-x="1271" d="M876 0v204q-157 -229 -381 -229q-142 0 -226 89.5t-84 241.5v780h197v-716q0 -122 35.5 -173.5t118.5 -51.5q180 0 340 237v704h197v-1086h-197zM345 1283v173h173v-173h-173zM740 1283v173h173v-173h-173zM979 1925l-241 -321h-218l-241 321h148l203 -202l201 202h148z " />
<glyph unicode="&#x1db;" horiz-adv-x="1419" d="M179 1480h210v-934q0 -223 82.5 -324.5t262.5 -101.5q176 0 249.5 95.5t73.5 323.5v941h184v-938q0 -194 -38 -298t-137 -183q-124 -98 -341 -98q-281 0 -413.5 142t-132.5 443v932zM439 1604v173h173v-173h-173zM834 1604v173h173v-173h-173zM871 1925h-148l-321 321 h228z" />
<glyph unicode="&#x1dc;" horiz-adv-x="1271" d="M876 0v204q-157 -229 -381 -229q-142 0 -226 89.5t-84 241.5v780h197v-716q0 -122 35.5 -173.5t118.5 -51.5q180 0 340 237v704h197v-1086h-197zM345 1283v173h173v-173h-173zM740 1283v173h173v-173h-173zM777 1604h-148l-321 321h228z" />
<glyph unicode="&#x1dd;" horiz-adv-x="1141" d="M151 1050q197 60 338 60q241 0 392 -159t151 -413q0 -247 -133 -405t-342 -158q-197 0 -304.5 140t-107.5 398l1 61h685q-42 387 -379 387q-123 0 -301 -66v155zM822 426h-479q0 -303 227 -303q226 0 252 303z" />
<glyph unicode="&#x1de;" horiz-adv-x="1413" d="M17 0l587 1480h208l578 -1480h-227l-161 410h-627l-163 -410h-195zM436 566h505l-252 638zM420 1604v173h173v-173h-173zM815 1604v173h173v-173h-173zM382 1925v148h642v-148h-642z" />
<glyph unicode="&#x1df;" horiz-adv-x="1131" d="M757 138q-177 -163 -341 -163q-135 0 -224 84.5t-89 213.5q0 178 149.5 273.5t429.5 95.5h46v131q0 189 -197 189q-153 0 -334 -96v163q199 81 375 81q181 0 267 -82.5t86 -254.5v-492q0 -169 104 -169q13 0 38 4l14 -109q-67 -32 -148 -32q-138 0 -176 163zM728 245v281 l-63 2q-164 0 -264.5 -61t-100.5 -162q0 -71 50 -120t122 -49q123 0 256 109zM284 1283v173h173v-173h-173zM679 1283v173h173v-173h-173zM247 1604v148h642v-148h-642z" />
<glyph unicode="&#x1e0;" horiz-adv-x="1413" d="M17 0l587 1480h208l578 -1480h-227l-161 410h-627l-163 -410h-195zM436 566h505l-252 638zM605 1604v197h197v-197h-197zM382 1925v148h642v-148h-642z" />
<glyph unicode="&#x1e1;" horiz-adv-x="1131" d="M757 138q-177 -163 -341 -163q-135 0 -224 84.5t-89 213.5q0 178 149.5 273.5t429.5 95.5h46v131q0 189 -197 189q-153 0 -334 -96v163q199 81 375 81q181 0 267 -82.5t86 -254.5v-492q0 -169 104 -169q13 0 38 4l14 -109q-67 -32 -148 -32q-138 0 -176 163zM728 245v281 l-63 2q-164 0 -264.5 -61t-100.5 -162q0 -71 50 -120t122 -49q123 0 256 109zM529 1258v197h197v-197h-197zM247 1604v148h642v-148h-642z" />
<glyph unicode="&#x1e2;" horiz-adv-x="1857" d="M18 0l861 1480h883v-157h-618v-475h518v-155h-518v-536h664v-157h-874v414h-483l-241 -414h-192zM540 569h394v671zM934 1604v148h642v-148h-642z" />
<glyph unicode="&#x1e3;" horiz-adv-x="1743" d="M809 193q-190 -218 -393 -218q-135 0 -224 84.5t-89 213.5q0 178 149.5 273.5t429.5 95.5h46v131q0 189 -197 189q-153 0 -334 -96v163q199 81 376 81q192 0 304 -121q123 121 303 121q418 0 418 -598h-672q28 -389 365 -389q140 0 307 71v-157q-193 -62 -359 -62 q-285 0 -430 218zM728 245v281l-63 2q-164 0 -264.5 -61t-100.5 -162q0 -71 50 -120t122 -49q123 0 256 109zM932 648h456q0 315 -214 315q-217 0 -242 -315zM542 1283v148h642v-148h-642z" />
<glyph unicode="&#x1e4;" horiz-adv-x="1649" d="M1303 40q-269 -77 -469 -77q-353 0 -541.5 200.5t-188.5 576.5q0 370 191.5 573.5t538.5 203.5q223 0 467 -67v-194q-306 104 -469 104q-240 0 -372.5 -162.5t-132.5 -458.5q0 -293 142 -456t398 -163q105 0 227 37v197h-247v157h247v223h209v-223h247v-157h-247v-314z " />
<glyph unicode="&#x1e5;" horiz-adv-x="1437" d="M201 -361l23 171q171 -81 338 -81q332 0 332 353v171q-51 -108 -145.5 -168t-210.5 -60q-197 0 -312 141.5t-115 383.5q0 248 131 404t339 156q182 0 313 -148v124h198v-417h247v-123h-247v-250q0 -255 -26.5 -377.5t-99.5 -200.5q-129 -137 -403 -137q-188 0 -362 58z M894 376v170h-271v123h271v158q-130 135 -283 135q-136 0 -213 -109t-77 -302q0 -354 251 -354q171 0 322 179z" />
<glyph unicode="&#x1e6;" horiz-adv-x="1480" d="M1303 40q-269 -77 -469 -77q-353 0 -541.5 200.5t-188.5 576.5q0 370 191.5 573.5t538.5 203.5q223 0 467 -67v-194q-306 104 -469 104q-240 0 -372.5 -162.5t-132.5 -458.5q0 -293 142 -456t398 -163q105 0 227 37v482h209v-599zM1179 1925l-241 -321h-218l-241 321h148 l203 -202l201 202h148z" />
<glyph unicode="&#x1e7;" horiz-adv-x="1277" d="M201 -361l23 171q171 -81 338 -81q332 0 332 353v171q-51 -108 -145.5 -168t-210.5 -60q-197 0 -312 141.5t-115 383.5q0 248 131 404t339 156q182 0 313 -148v124h198v-790q0 -255 -26.5 -377.5t-99.5 -200.5q-129 -137 -403 -137q-188 0 -362 58zM894 376v451 q-130 135 -283 135q-136 0 -213 -109t-77 -302q0 -354 251 -354q171 0 322 179zM953 1604l-241 -321h-218l-241 321h148l203 -202l201 202h148z" />
<glyph unicode="&#x1e8;" horiz-adv-x="1337" d="M191 0v1480h197v-728l599 728h211l-580 -706l683 -774h-266l-647 750v-750h-197zM997 1925l-241 -321h-218l-241 321h148l203 -202l201 202h148z" />
<glyph unicode="&#x1e9;" horiz-adv-x="1197" d="M197 0v1579h197v-1020l460 527h212l-439 -507l530 -579h-252l-511 557v-557h-197zM1066 1925l-241 -321h-218l-241 321h148l203 -202l201 202h148z" />
<glyph unicode="&#x1ea;" horiz-adv-x="1591" d="M796 -37q-315 0 -503.5 211.5t-188.5 565.5t188.5 565.5t503.5 211.5t503.5 -211.5t188.5 -565.5t-188.5 -565.5t-503.5 -211.5zM796 120q221 0 345 164.5t124 457.5q0 291 -124 454.5t-345 163.5t-345 -163.5t-124 -454.5q0 -293 124 -457.5t345 -164.5zM855 0h107 q-128 -77 -128 -178q0 -97 113 -97q57 0 92 15v-81q-60 -29 -138 -29q-92 0 -148 44t-56 115q0 125 158 211z" />
<glyph unicode="&#x1eb;" horiz-adv-x="1258" d="M629 -25q-239 0 -378.5 153t-139.5 415t139.5 414.5t378.5 152.5t378.5 -152.5t139.5 -414.5t-139.5 -415t-378.5 -153zM629 123q147 0 228 110t81 310t-81 309.5t-228 109.5t-227.5 -109.5t-80.5 -309.5t80.5 -310t227.5 -110zM671 0h107q-128 -77 -128 -178 q0 -97 113 -97q57 0 92 15v-81q-60 -29 -138 -29q-92 0 -148 44t-56 115q0 125 158 211z" />
<glyph unicode="&#x1ec;" horiz-adv-x="1591" d="M796 -37q-315 0 -503.5 211.5t-188.5 565.5t188.5 565.5t503.5 211.5t503.5 -211.5t188.5 -565.5t-188.5 -565.5t-503.5 -211.5zM796 120q221 0 345 164.5t124 457.5q0 291 -124 454.5t-345 163.5t-345 -163.5t-124 -454.5q0 -293 124 -457.5t345 -164.5zM855 0h107 q-128 -77 -128 -178q0 -97 113 -97q57 0 92 15v-81q-60 -29 -138 -29q-92 0 -148 44t-56 115q0 125 158 211zM475 1604v148h642v-148h-642z" />
<glyph unicode="&#x1ed;" horiz-adv-x="1258" d="M629 -25q-239 0 -378.5 153t-139.5 415t139.5 414.5t378.5 152.5t378.5 -152.5t139.5 -414.5t-139.5 -415t-378.5 -153zM629 123q147 0 228 110t81 310t-81 309.5t-228 109.5t-227.5 -109.5t-80.5 -309.5t80.5 -310t227.5 -110zM671 0h107q-128 -77 -128 -178 q0 -97 113 -97q57 0 92 15v-81q-60 -29 -138 -29q-92 0 -148 44t-56 115q0 125 158 211zM308 1283v148h642v-148h-642z" />
<glyph unicode="&#x1ee;" horiz-adv-x="1141" d="M93 14v186q187 -83 365 -83q147 0 236.5 79.5t89.5 209.5q0 141 -119.5 228.5t-311.5 87.5q-51 0 -124 -13v151l499 435h-623v185h858v-185l-488 -421q227 0 379 -130t152 -324q0 -213 -149 -335t-408 -122q-178 0 -356 51zM884 1925l-241 -321h-218l-241 321h148 l203 -202l201 202h148z" />
<glyph unicode="&#x1ef;" horiz-adv-x="1049" d="M80 -369v167q201 -69 345 -69t229.5 77t85.5 205q0 155 -138.5 243.5t-380.5 88.5h-18v137l482 445h-586v161h814v-148l-487 -458q244 -21 384 -142.5t140 -313.5q0 -199 -144.5 -321t-379.5 -122q-142 0 -346 50zM856 1604l-241 -321h-218l-241 321h148l203 -202 l201 202h148z" />
<glyph unicode="&#x1f0;" horiz-adv-x="623" d="M-153 -369v156q138 -58 210 -58q82 0 127 44q30 30 37.5 68t7.5 159v1086h198v-1086q0 -419 -354 -419q-105 0 -226 50zM678 1604l-241 -321h-218l-241 321h148l202 -202l202 202h148z" />
<glyph unicode="&#x1fa;" horiz-adv-x="1413" d="M17 0l587 1480h208l578 -1480h-227l-161 410h-627l-163 -410h-195zM436 566h505l-252 638zM560 2023l241 321h228l-321 -321h-148zM708 1482q-95 0 -161 66t-66 161q0 94 66 160.5t161 66.5q94 0 160.5 -66t66.5 -161t-66 -161t-161 -66zM708 1568q59 0 100 41t41 100 t-41.5 100t-99.5 41q-59 0 -100 -41t-41 -100q0 -58 41 -99.5t100 -41.5z" />
<glyph unicode="&#x1fb;" horiz-adv-x="1131" d="M757 138q-177 -163 -341 -163q-135 0 -224 84.5t-89 213.5q0 178 149.5 273.5t429.5 95.5h46v131q0 189 -197 189q-153 0 -334 -96v163q199 81 375 81q181 0 267 -82.5t86 -254.5v-492q0 -169 104 -169q13 0 38 4l14 -109q-67 -32 -148 -32q-138 0 -176 163zM728 245v281 l-63 2q-164 0 -264.5 -61t-100.5 -162q0 -71 50 -120t122 -49q123 0 256 109zM419 1762l241 321h228l-321 -321h-148zM567 1209q-95 0 -161 66t-66 161q0 94 66 160.5t161 66.5q94 0 160.5 -66t66.5 -161t-66 -161t-161 -66zM567 1295q59 0 100 41t41 100t-41.5 100 t-99.5 41q-59 0 -100 -41t-41 -100q0 -58 41 -99.5t100 -41.5z" />
<glyph unicode="&#x1fc;" horiz-adv-x="1857" d="M18 0l861 1480h883v-157h-618v-475h518v-155h-518v-536h664v-157h-874v414h-483l-241 -414h-192zM540 569h394v671zM996 1604l241 321h228l-321 -321h-148z" />
<glyph unicode="&#x1fd;" horiz-adv-x="1743" d="M809 193q-190 -218 -393 -218q-135 0 -224 84.5t-89 213.5q0 178 149.5 273.5t429.5 95.5h46v131q0 189 -197 189q-153 0 -334 -96v163q199 81 376 81q192 0 304 -121q123 121 303 121q418 0 418 -598h-672q28 -389 365 -389q140 0 307 71v-157q-193 -62 -359 -62 q-285 0 -430 218zM728 245v281l-63 2q-164 0 -264.5 -61t-100.5 -162q0 -71 50 -120t122 -49q123 0 256 109zM932 648h456q0 315 -214 315q-217 0 -242 -315zM728 1283l241 321h228l-321 -321h-148z" />
<glyph unicode="&#x1fe;" horiz-adv-x="1591" d="M1097 1247q-119 113 -302 113q-220 0 -344 -163.5t-124 -454.5q0 -233 83 -393zM495 234q119 -114 303 -114q219 0 343 164t124 455q0 235 -83 393zM115 -37l169 221q-180 217 -180 557q0 354 188.5 565t502.5 211q237 0 413 -126l97 126h172l-169 -220 q180 -216 180 -559q0 -351 -188.5 -563t-500.5 -212q-245 0 -415 126l-96 -126h-173zM648 1604l241 321h228l-321 -321h-148z" />
<glyph unicode="&#x1ff;" horiz-adv-x="1258" d="M111 -25l127 169q-127 146 -127 396q0 264 139 417t379 153q178 0 304 -85l68 85h146l-129 -165l2 -4q127 -159 127 -397q0 -262 -139 -415.5t-378 -153.5q-174 0 -304 85l-67 -85h-148zM895 787l-463 -591q77 -73 195 -73q147 0 229 109.5t82 305.5q0 136 -43 249z M364 298l463 590q-81 74 -196 74q-147 0 -228.5 -109.5t-81.5 -305.5q0 -145 43 -249zM481 1283l241 321h228l-321 -321h-148z" />
<glyph unicode="&#x250;" horiz-adv-x="1131" d="M373 948q178 162 342 162q135 0 223.5 -84.5t88.5 -212.5q0 -179 -149.5 -274.5t-428.5 -95.5l-47 1v-132q0 -189 197 -189q153 0 334 97v-163q-198 -82 -375 -82q-180 0 -266.5 82.5t-86.5 255.5v492q0 168 -104 168q-13 0 -38 -3l-14 109q68 31 148 31q138 0 176 -162z M402 840v-281l64 -1q163 0 263.5 61t100.5 161q0 72 -49.5 121t-122.5 49q-122 0 -256 -110z" />
<glyph unicode="&#x251;" horiz-adv-x="1246" d="M851 322q-71 -154 -191 -250.5t-241 -96.5q-135 0 -221.5 118.5t-86.5 304.5q0 315 211 547q151 165 363 165q88 0 166 -24h198v-1086h-198v322zM851 948q-65 33 -144 33q-158 0 -272 -160t-114 -383q0 -278 174 -278q82 0 177.5 99.5t178.5 270.5v418z" />
<glyph unicode="&#x252;" horiz-adv-x="1246" d="M394 764q72 154 192 250.5t241 96.5q135 0 221.5 -118.5t86.5 -304.5q0 -315 -211 -547q-151 -166 -363 -166q-88 0 -167 25h-197v1086h197v-322zM394 138q66 -33 145 -33q158 0 272 160t114 382q0 278 -174 278q-82 0 -178 -99t-179 -270v-418z" />
<glyph unicode="&#x253;" horiz-adv-x="1289" d="M197 -12v996q0 620 501 620q131 0 264 -42v-173q-134 67 -275 67q-158 0 -225.5 -117t-67.5 -392v-65q121 228 363 228q196 0 308.5 -143t112.5 -391q0 -270 -127.5 -435.5t-335.5 -165.5q-193 0 -321 148l-24 -135h-173zM394 259q152 -136 291 -136q135 0 209 113.5 t74 319.5q0 382 -253 382q-164 0 -321 -179v-500z" />
<glyph unicode="&#x254;" horiz-adv-x="1049" d="M98 1053q191 57 330 57q220 0 365 -163t145 -410q0 -266 -143.5 -414t-401.5 -148q-127 0 -284 36v165q168 -50 273 -50q151 0 242 113.5t91 302.5q0 184 -93.5 297t-245.5 113q-135 0 -278 -69v170z" />
<glyph unicode="&#x255;" horiz-adv-x="1141" d="M938 1078v-165q-136 49 -274 49q-161 0 -252 -105.5t-91 -291.5q0 -174 85 -286q80 106 192.5 169.5t220.5 63.5q112 0 186 -66.5t74 -166.5q0 -129 -111.5 -216.5t-277.5 -87.5q-144 0 -266 64q-54 -118 -54 -236h-150q0 176 80 318q-189 162 -189 440q0 259 151 404 t419 145q140 0 257 -32zM516 182q92 -59 189 -59q89 0 158 47t69 109q0 85 -114 85q-147 0 -302 -182z" />
<glyph unicode="&#x256;" horiz-adv-x="1289" d="M894 827q-153 135 -290 135q-135 0 -209 -113t-74 -320q0 -381 252 -381q164 0 321 179v500zM894 204q-120 -229 -362 -229q-196 0 -308.5 143t-112.5 391q0 271 127.5 436t335.5 165q193 0 320 -148v617h198v-1634q0 -118 33.5 -167.5t113.5 -49.5q62 0 124 27v-154 q-74 -21 -147 -21q-152 0 -237 87t-85 241v296z" />
<glyph unicode="&#x257;" horiz-adv-x="1289" d="M894 827q-153 135 -290 135q-135 0 -209 -113t-74 -320q0 -381 252 -381q164 0 321 179v500zM894 962v314q0 155 85 241.5t237 86.5q73 0 147 -21v-154q-62 27 -125 27q-79 0 -112.5 -49.5t-33.5 -167.5v-1239h-198v204q-120 -229 -362 -229q-196 0 -308.5 143 t-112.5 391q0 271 127.5 436t335.5 165q193 0 320 -148z" />
<glyph unicode="&#x258;" horiz-adv-x="1141" d="M150 35v156q178 -66 302 -66q336 0 378 387h-685v61q0 258 107 398t305 140q208 0 341 -158t133 -405q0 -254 -151 -413.5t-392 -159.5q-141 0 -338 60zM821 660q-26 303 -252 303q-227 0 -227 -303h479z" />
<glyph unicode="&#x259;" horiz-adv-x="1141" d="M151 1050q197 60 338 60q241 0 392 -159t151 -413q0 -247 -133 -405t-342 -158q-197 0 -304.5 140t-107.5 398l1 61h685q-42 387 -379 387q-123 0 -301 -66v155zM822 426h-479q0 -303 227 -303q226 0 252 303z" />
<glyph unicode="&#x25a;" horiz-adv-x="1616" d="M142 1051q213 59 333 59q198 0 323 -91.5t197 -287.5l393 105v-220q0 -125 24 -170t90 -45q44 0 102 33v-154q-90 -27 -137 -27q-227 0 -227 315v75l-217 -60l1 -50q0 -244 -131.5 -401t-336.5 -157q-193 0 -303.5 140t-110.5 383l666 180q-78 285 -364 285 q-121 0 -302 -68v156zM823 528l-487 -132l5 -45q26 -228 222 -228q260 0 260 405z" />
<glyph unicode="&#x25b;" horiz-adv-x="975" d="M851 193v-159q-159 -59 -306 -59q-185 0 -309.5 95t-124.5 236q0 99 73 182t190 116q-201 103 -201 250q0 121 102 188.5t285 67.5q176 0 267 -35v-148l-11 2q-125 34 -249 34q-95 0 -152 -35t-57 -93q0 -87 92.5 -134t262.5 -47h27v-148h-140q-127 0 -209.5 -54.5 t-82.5 -139.5q0 -87 71.5 -138t193.5 -51q125 0 263 64z" />
<glyph unicode="&#x25c;" horiz-adv-x="975" d="M123 193l15 -6q138 -64 264 -64q121 0 192.5 50.5t71.5 136.5t-81.5 141t-210.5 55h-140v148h27q356 0 356 181q0 127 -214 127q-120 0 -245 -33l-10 -2v148q90 35 266 35q183 0 285.5 -67.5t102.5 -188.5q0 -147 -202 -250q117 -33 190 -116t73 -182q0 -141 -124 -236 t-310 -95q-146 0 -306 59v159z" />
<glyph unicode="&#x25d;" horiz-adv-x="1366" d="M123 193l15 -6q138 -64 264 -64q121 0 192.5 50.5t71.5 136.5t-81.5 141t-210.5 55h-140v148h27q356 0 356 181q0 127 -214 127q-120 0 -245 -33l-10 -2v148q90 35 267 35q225 0 329 -105l393 105v-220q0 -125 24 -170t90 -45q44 0 102 33v-154q-89 -27 -137 -27 q-227 0 -227 315v76l-188 -53l1 -15q0 -143 -202 -246q117 -33 190 -116t73 -182q0 -141 -124 -236t-310 -95q-146 0 -306 59v159z" />
<glyph unicode="&#x25e;" horiz-adv-x="1184" d="M880 581q206 -86 206 -262q0 -154 -126 -249t-330 -95q-245 0 -382 145t-137 404q0 274 143.5 430t396.5 156q195 0 308.5 -74t113.5 -201q0 -80 -53 -150t-140 -104zM493 493v149h102q144 0 222 43t78 123q0 68 -72.5 111t-186.5 43q-173 0 -272 -116.5t-99 -318.5 q0 -194 94.5 -299t267.5 -105q116 0 188.5 56t72.5 145q0 169 -289 169h-106z" />
<glyph unicode="&#x25f;" horiz-adv-x="808" d="M-73 -213q138 -58 210 -58q82 0 127 44q30 30 37.5 68t7.5 159v543h-246v148h246v395h198v-395h247v-148h-247v-543q0 -419 -354 -419q-105 0 -226 50v156z" />
<glyph unicode="&#x260;" horiz-adv-x="1277" d="M1369 1583v-148q-53 21 -111 21q-104 0 -135 -41.5t-31 -180.5v-938q0 -255 -26.5 -377.5t-99.5 -200.5q-129 -137 -403 -137q-188 0 -362 58l23 171q171 -81 338 -81q332 0 332 353v171q-51 -108 -145.5 -168t-210.5 -60q-197 0 -312 141.5t-115 383.5q0 248 131 404 t339 156q182 0 313 -148v299q0 343 335 343q69 0 140 -21zM894 376v451q-130 135 -283 135q-136 0 -213 -109t-77 -302q0 -354 251 -354q171 0 322 179z" />
<glyph unicode="&#x261;" horiz-adv-x="1277" d="M201 -361l23 171q171 -81 338 -81q332 0 332 353v171q-51 -108 -145.5 -168t-210.5 -60q-197 0 -312 141.5t-115 383.5q0 248 131 404t339 156q182 0 313 -148v124h198v-790q0 -255 -26.5 -377.5t-99.5 -200.5q-129 -137 -403 -137q-188 0 -362 58zM894 376v451 q-130 135 -283 135q-136 0 -213 -109t-77 -302q0 -354 251 -354q171 0 322 179z" />
<glyph unicode="&#x262;" horiz-adv-x="1201" d="M1051 29q-214 -54 -367 -54q-277 0 -425 147t-148 421q0 271 150 419t424 148q172 0 364 -44v-155q-226 51 -350 51q-184 0 -282.5 -110t-98.5 -316q0 -202 97.5 -312.5t275.5 -110.5q66 0 162 15v342h198v-441z" />
<glyph unicode="&#x263;" horiz-adv-x="1105" d="M668 357q159 -289 159 -466q0 -134 -84.5 -222t-213.5 -88q-120 0 -194.5 76.5t-74.5 199.5q0 224 198 481q-136 302 -236.5 433t-221.5 163l93 152q127 -27 238 -154.5t239 -391.5l19 -41q177 233 238.5 343t61.5 191q0 24 -9 53h184q4 -27 4 -43q0 -90 -68.5 -210.5 t-284.5 -412.5zM542 219q-128 -165 -128 -335q0 -76 35 -122t92 -46q107 0 107 132q0 120 -106 371z" />
<glyph unicode="&#x264;" horiz-adv-x="1092" d="M550 757q240 335 459 335q14 0 33 -2v-139q-12 1 -21 1q-70 0 -173.5 -84t-206.5 -225l17 -26q156 -230 156 -359q0 -117 -89.5 -200t-215.5 -83q-117 0 -199 72.5t-82 176.5q0 138 198 403q-207 304 -335 304q-18 0 -42 -7v149q49 19 84 19q170 0 417 -335zM507 520 q-131 -154 -131 -281q0 -56 37 -92t94 -36q56 0 95 38.5t39 92.5q0 46 -42 134t-92 144z" />
<glyph unicode="&#x265;" horiz-adv-x="1271" d="M1073 1086v-1481h-197v599q-156 -229 -381 -229q-142 0 -226 89.5t-84 241.5v780h197v-716q0 -122 35.5 -173.5t118.5 -51.5q181 0 340 237v704h197z" />
<glyph unicode="&#x266;" horiz-adv-x="1271" d="M197 0v984q0 620 501 620q131 0 264 -42v-173q-134 67 -275 67q-158 0 -225.5 -117t-67.5 -392v-65q156 228 382 228q142 0 225.5 -89.5t83.5 -240.5v-780h-197v716q0 121 -35.5 172.5t-117.5 51.5q-181 0 -341 -237v-703h-197z" />
<glyph unicode="&#x267;" horiz-adv-x="1271" d="M197 0v984q0 620 501 620q131 0 264 -42v-173q-134 67 -275 67q-158 0 -225.5 -117t-67.5 -392v-65q156 228 382 228q142 0 225.5 -89.5t83.5 -240.5v-872q0 -154 -84.5 -241t-236.5 -87q-73 0 -148 21v154q63 -27 126 -27q79 0 112.5 50t33.5 167v771q0 121 -35.5 172.5 t-117.5 51.5q-181 0 -341 -237v-703h-197z" />
<glyph unicode="&#x268;" horiz-adv-x="789" d="M296 0v543h-247v148h247v395h197v-395h247v-148h-247v-543h-197zM296 1283v197h197v-197h-197z" />
<glyph unicode="&#x269;" horiz-adv-x="759" d="M697 17q-92 -42 -194 -42q-153 0 -238 95q-74 83 -74 312v704h197v-685q0 -152 35.5 -215t121.5 -63q73 0 152 42v-148z" />
<glyph unicode="&#x26a;" horiz-adv-x="839" d="M123 0v148h197v790h-197v148h592v-148h-197v-790h197v-148h-592z" />
<glyph unicode="&#x26b;" horiz-adv-x="1036" d="M617 1579v-696q67 -32 130 -32q103 0 103 160l1 25h148q0 -333 -252 -333q-62 0 -130 24v-727h-198v785q-68 29 -129 29q-105 0 -105 -185h-148q0 157 68 245t190 88q65 0 124 -19v636h198z" />
<glyph unicode="&#x26c;" horiz-adv-x="1061" d="M740 1579v-802h296v-148h-296v-629h-197v629h-87q-431 0 -431 288q0 98 67.5 166t165.5 68q152 0 285 -166v594h197zM543 777q-69 100 -150.5 163t-140.5 63q-79 0 -79 -87q0 -80 69.5 -109.5t255.5 -29.5h45z" />
<glyph unicode="&#x26d;" horiz-adv-x="611" d="M197 1579h197v-1634q0 -118 33.5 -167.5t113.5 -49.5q63 0 125 27v-154q-75 -21 -148 -21q-151 0 -236 87t-85 241v1671z" />
<glyph unicode="&#x26e;" horiz-adv-x="1345" d="M394 1579v-493h821v-148l-436 -462q217 -11 345 -126t128 -300q0 -200 -155 -342q-140 -127 -393 -127q-105 0 -260 32v163q170 -47 264 -47q150 0 242 82t92 217q0 151 -117.5 233.5t-332.5 82.5v149l418 445h-616v-938h-197v1579h197z" />
<glyph unicode="&#x26f;" horiz-adv-x="1912" d="M1715 1086v-1086h-198v204q-143 -229 -369 -229q-218 0 -297 229q-140 -229 -364 -229q-144 0 -223 84.5t-79 236.5v790h197v-759q0 -187 148 -187q153 0 321 218v728h198v-759q0 -188 150 -188q149 0 318 219v728h198z" />
<glyph unicode="&#x270;" horiz-adv-x="1912" d="M185 1086h197v-759q0 -187 148 -187q153 0 321 218v728h198v-759q0 -188 150 -188q149 0 318 219v728h198v-1481h-198v599q-143 -229 -369 -229q-218 0 -297 229q-140 -229 -364 -229q-144 0 -223 84.5t-79 236.5v790z" />
<glyph unicode="&#x271;" horiz-adv-x="1912" d="M197 0v1086h197v-204q144 228 370 228q218 0 297 -228q140 229 364 229q143 0 222.5 -84.5t79.5 -236.5v-882q0 -154 -85 -241t-236 -87q-74 0 -148 21v154q62 -27 125 -27q79 0 112.5 50t33.5 167v814q0 186 -147 186q-153 0 -321 -217v-728h-198v759q0 187 -150 187 q-149 0 -319 -218v-728h-197z" />
<glyph unicode="&#x272;" horiz-adv-x="1289" d="M217 1086h197v-204q156 228 381 228q142 0 226 -89.5t84 -240.5v-780h-198v716q0 121 -35 172.5t-118 51.5q-181 0 -340 -237v-795q0 -154 -85 -241t-236 -87q-73 0 -148 21v154q62 -27 125 -27q80 0 113.5 50t33.5 167v1141z" />
<glyph unicode="&#x273;" horiz-adv-x="1296" d="M394 703v-703h-197v1086h197v-204q156 228 382 228q142 0 225.5 -89.5t83.5 -240.5v-835q0 -118 33.5 -167.5t113.5 -49.5q63 0 125 27v-154q-75 -21 -148 -21q-151 0 -236 87t-85 241v808q0 121 -35.5 172.5t-117.5 51.5q-181 0 -341 -237z" />
<glyph unicode="&#x274;" horiz-adv-x="1283" d="M197 0v1086h173l543 -779v779h172v-1086h-172l-543 779v-779h-173z" />
<glyph unicode="&#x275;" horiz-adv-x="1258" d="M323 481q26 -358 306 -358t306 358h-612zM933 629q-34 333 -304 333t-304 -333h608zM629 -25q-239 0 -378.5 153t-139.5 415t139.5 414.5t378.5 152.5t378.5 -152.5t139.5 -414.5t-139.5 -415t-378.5 -153z" />
<glyph unicode="&#x276;" horiz-adv-x="1659" d="M880 21q-128 -46 -230 -46q-243 0 -391 156.5t-148 412.5q0 255 148 410.5t390 155.5q101 0 231 -42v18h660v-148h-463v-298h389l2 -144h-391v-348h483v-148h-680v21zM880 418v252q0 292 -235 292q-153 0 -240 -111t-87 -307q0 -198 87 -309.5t242 -111.5q233 0 233 295z " />
<glyph unicode="&#x277;" horiz-adv-x="1653" d="M827 165q-131 -190 -321 -190q-175 0 -285 136t-110 351q0 297 194 472.5t522 175.5q327 0 521 -175.5t194 -473.5q0 -214 -110 -350t-285 -136q-190 0 -320 190zM753 340q-44 96 -44 187q0 102 44 207h147q44 -105 44 -207q0 -91 -44 -187q34 -84 97 -135t134 -51 q99 0 159.5 88.5t60.5 232.5q0 200 -131 344q-131 143 -403 143q-253 0 -384 -143q-131 -144 -131 -344q0 -144 60.5 -232.5t159.5 -88.5q71 0 134 51t97 135z" />
<glyph unicode="&#x278;" horiz-adv-x="1555" d="M679 -395v427q-264 0 -422 139t-158 370t158 369t422 138v531h197v-531q264 0 422 -138t158 -369t-158 -370t-422 -139v-427h-197zM679 898q-188 -12 -285.5 -103.5t-97.5 -254.5q0 -159 106.5 -258.5t276.5 -99.5v716zM876 898v-716q170 0 276.5 99.5t106.5 258.5 q0 163 -97.5 254.5t-285.5 103.5z" />
<glyph unicode="&#x279;" horiz-adv-x="838" d="M640 1086v-1086h-197v204q-117 -229 -340 -229q-30 0 -63 6v184q51 -17 91 -17q186 0 312 222v716h197z" />
<glyph unicode="&#x27a;" horiz-adv-x="838" d="M640 1579v-1579h-197v204q-117 -229 -340 -229q-30 0 -63 6v184q51 -17 91 -17q186 0 312 222v1209h197z" />
<glyph unicode="&#x27b;" horiz-adv-x="875" d="M443 204q-117 -229 -340 -229q-30 0 -63 6v184q51 -17 91 -17q186 0 312 222v716h197v-1141q0 -118 33.5 -167.5t113.5 -49.5q62 0 125 27v-154q-75 -21 -148 -21q-151 0 -236 87t-85 241v296z" />
<glyph unicode="&#x27c;" horiz-adv-x="838" d="M197 -395v1481h197v-204q117 228 340 228q30 0 63 -5v-184q-51 17 -90 17q-187 0 -313 -222v-1111h-197z" />
<glyph unicode="&#x27d;" horiz-adv-x="838" d="M197 1086h197v-204q117 228 340 228q30 0 63 -5v-184q-51 17 -90 17q-187 0 -313 -222v-771q0 -118 33.5 -167.5t113.5 -49.5q63 0 125 27v-154q-75 -21 -148 -21q-151 0 -236 87t-85 241v1178z" />
<glyph unicode="&#x27e;" horiz-adv-x="842" d="M197 0v592q0 518 386 518q111 0 218 -39v-163q-110 54 -214 54q-112 0 -152.5 -77t-40.5 -293v-592h-197z" />
<glyph unicode="&#x27f;" horiz-adv-x="842" d="M644 0h-197v592q0 217 -40 293.5t-153 76.5q-104 0 -214 -54v163q108 39 220 39q384 0 384 -518v-592z" />
<glyph unicode="&#x280;" horiz-adv-x="1127" d="M197 0v1086h414q330 0 330 -269q0 -217 -204 -308l350 -509h-239l-302 444h-152v-444h-197zM394 592h88q257 0 257 204q0 82 -51.5 112t-194.5 30h-99v-346z" />
<glyph unicode="&#x281;" horiz-adv-x="1127" d="M197 1086h197v-444h152l302 444h239l-350 -510q204 -91 204 -307q0 -269 -330 -269h-414v1086zM394 494v-346h99q143 0 194.5 29.5t51.5 112.5q0 204 -257 204h-88z" />
<glyph unicode="&#x282;" horiz-adv-x="1043" d="M617 -251v-149q-83 -20 -158 -20q-302 0 -302 383v256q193 -96 336 -96q85 0 141 46t56 115q0 101 -157 167l-115 49q-255 106 -255 305q0 142 100.5 223.5t275.5 81.5q91 0 225 -25l41 -8v-164q-165 49 -263 49q-86 0 -137.5 -37.5t-51.5 -100.5q0 -89 144 -150l95 -40 q161 -68 228 -143.5t67 -188.5q0 -143 -113 -235t-289 -92q-70 0 -180 22v-29q0 -141 37 -193.5t136 -52.5q74 0 139 27z" />
<glyph unicode="&#x283;" horiz-adv-x="870" d="M-85 -385v163q112 -49 208 -49q108 0 150.5 81t42.5 285v991q0 518 386 518q111 0 218 -40v-162q-110 54 -214 54q-112 0 -152.5 -77t-40.5 -293v-987q0 -518 -384 -518q-96 0 -214 34z" />
<glyph unicode="&#x284;" horiz-adv-x="889" d="M346 296h-246v123h246v346h-246v123h246v388q0 155 85 241.5t237 86.5q73 0 147 -21v-154q-62 27 -125 27q-79 0 -112.5 -49.5t-33.5 -167.5v-351h247v-123h-247v-346h247v-123h-247v-296q0 -419 -354 -419q-105 0 -226 50v156q138 -58 210 -58q82 0 127 44 q30 30 37.5 68t7.5 159v296z" />
<glyph unicode="&#x285;" horiz-adv-x="919" d="M920 10q-118 -35 -218 -35q-380 0 -380 518v593q0 217 -40 293.5t-153 76.5q-104 0 -214 -54v162q108 40 220 40q384 0 384 -518v-597q0 -204 43 -285t151 -81q96 0 207 49v-162z" />
<glyph unicode="&#x286;" horiz-adv-x="1067" d="M958 -25h-296q0 -168 -121 -281t-300 -113q-121 0 -202 75t-81 186q0 143 120 223q87 58 301 58h85v963q0 518 387 518q110 0 218 -40v-162q-111 54 -215 54q-112 0 -152 -77.5t-40 -292.5v-963h296v-148zM464 -25h-137q-221 0 -221 -130q0 -116 145 -116q97 0 155 63 t58 169v14z" />
<glyph unicode="&#x287;" horiz-adv-x="766" d="M85 1086q91 24 158 24q150 0 234 -86t84 -238v-638h136v-148h-136v-197l-197 -19v216h-284v148h284v602q0 213 -184 213q-39 0 -95 -13v136z" />
<glyph unicode="&#x288;" horiz-adv-x="766" d="M205 938h-136v148h136v197l197 19v-216h284v-148h-284v-993q0 -118 33.5 -167.5t113.5 -49.5q62 0 125 27v-154q-75 -21 -148 -21q-151 0 -236 87t-85 241v1030z" />
<glyph unicode="&#x289;" horiz-adv-x="1357" d="M925 382v161h-494v-173q0 -122 35.5 -173.5t118.5 -51.5q180 0 340 237zM1122 0h-197v204q-157 -229 -381 -229q-142 0 -226 89.5t-84 241.5v237h-197v148h197v395h197v-395h494v395h197v-395h198v-148h-198v-543z" />
<glyph unicode="&#x28a;" horiz-adv-x="1351" d="M286 938h-200v148h389v-148q-149 -172 -149 -398q0 -183 98 -300t251 -117t251 117t98 300q0 226 -148 398v148h388v-148h-200q157 -228 157 -437q0 -232 -152.5 -379t-393.5 -147q-240 0 -393 147t-153 379q0 209 157 437z" />
<glyph unicode="&#x28b;" horiz-adv-x="1221" d="M391 0l-348 1086h208l288 -903q164 16 268.5 184t104.5 414q0 163 -42 305h216q23 -103 23 -220q0 -201 -70 -386t-191 -304q-179 -176 -457 -176z" />
<glyph unicode="&#x28c;" horiz-adv-x="1060" d="M638 1086l404 -1086h-197l-315 844l-334 -844h-184l430 1086h196z" />
<glyph unicode="&#x28d;" horiz-adv-x="1578" d="M1255 1086l311 -1086h-192l-239 840l-256 -840h-197l-226 840l-272 -840h-170l355 1086h198l230 -841l259 841h199z" />
<glyph unicode="&#x28e;" horiz-adv-x="1070" d="M810 1481l-176 -395l420 -1086h-213l-311 818l-331 -818h-187l594 1481h204z" />
<glyph unicode="&#x28f;" horiz-adv-x="994" d="M390 0v456l-378 630h223l279 -466l293 466h174l-394 -630v-456h-197z" />
<glyph unicode="&#x290;" horiz-adv-x="1175" d="M903 0h-780v148l672 790h-641v148h884v-148l-672 -790h685v-180q0 -141 36.5 -193.5t135.5 -52.5q75 0 139 27v-149q-82 -20 -158 -20q-301 0 -301 383v37z" />
<glyph unicode="&#x291;" horiz-adv-x="1431" d="M123 0v154l664 784h-639v148h882v-148l-668 -784h284q243 395 506 395q107 0 177.5 -64.5t70.5 -163.5q0 -166 -138 -243.5t-433 -77.5h-98q-69 -142 -85 -296h-150q13 162 73 296h-446zM820 154h51q381 0 381 159q0 42 -29 71t-70 29q-142 0 -317 -237z" />
<glyph unicode="&#x292;" horiz-adv-x="1049" d="M80 -369v167q201 -69 345 -69t229.5 77t85.5 205q0 155 -138.5 243.5t-380.5 88.5h-18v137l482 445h-586v161h814v-148l-487 -458q244 -21 384 -142.5t140 -313.5q0 -199 -144.5 -321t-379.5 -122q-142 0 -346 50z" />
<glyph unicode="&#x293;" horiz-adv-x="1098" d="M969 1086v-148l-512 -441q236 0 386.5 -122.5t150.5 -315.5q0 -179 -162 -323q78 -128 87 -334h-149q-6 133 -64 253q-131 -74 -278 -74q-150 0 -261 90.5t-111 212.5q0 99 73 166t181 67q236 0 425 -236q55 74 55 174q0 308 -469 308l-68 -2v152l492 425h-596v148h820z M622 -217q-137 185 -302 185q-116 0 -116 -89q0 -60 71.5 -105t165.5 -45q81 0 181 54z" />
<glyph unicode="&#x294;" horiz-adv-x="907" d="M240 0v443q0 179 36.5 258t180.5 212l48 44q167 155 167 287q0 100 -67 156t-187 56q-162 0 -332 -76v162q192 62 363 62q192 0 303 -91.5t111 -249.5q0 -105 -43 -176t-194 -217l-46 -45q-99 -95 -120 -136.5t-21 -140.5l-1 -108v-440h-198z" />
<glyph unicode="&#x295;" horiz-adv-x="907" d="M666 0h-197v440l-2 108q0 99 -21 140.5t-119 136.5l-47 45q-150 145 -193.5 217t-43.5 176q0 158 111 249.5t303 91.5q172 0 363 -62v-162q-170 76 -335 76q-117 0 -184 -56.5t-67 -155.5q0 -132 168 -287l48 -44q143 -133 179.5 -212t36.5 -258v-443z" />
<glyph unicode="&#x296;" horiz-adv-x="907" d="M408 1579v-433q0 -109 18.5 -167t71.5 -113l60 -60l41 -42q247 -247 247 -420q0 -163 -116 -266t-300 -103q-196 0 -374 62v160q175 -74 338 -74q114 0 184 64t70 167q0 146 -185 336l-37 38q-130 134 -173 213.5t-43 188.5v449h198z" />
<glyph unicode="&#x297;" horiz-adv-x="994" d="M957 -218v-176q-140 -64 -279 -64q-256 0 -411.5 215.5t-155.5 568.5q0 354 155.5 569t411.5 215q139 0 279 -63v-176q-139 82 -263 82q-186 0 -286 -162.5t-100 -464.5t100 -464t286 -162q124 0 263 82z" />
<glyph unicode="&#x298;" horiz-adv-x="1357" d="M678 -25q-235 0 -401 166t-166 402q0 235 166 401t401 166q236 0 402 -166t166 -401q0 -236 -166 -402t-402 -166zM678 123q174 0 297 123t123 297t-123 296.5t-297 122.5t-296.5 -123t-122.5 -296q0 -174 122.5 -297t296.5 -123zM567 432v222h222v-222h-222z" />
<glyph unicode="&#x299;" horiz-adv-x="1075" d="M197 0v1086h378q165 0 254.5 -61.5t89.5 -174.5q0 -199 -208 -283q252 -81 252 -293q0 -129 -93 -201.5t-256 -72.5h-417zM393 148h82q167 0 224 29.5t57 114.5q0 91 -74.5 147.5t-195.5 56.5h-93v-348zM393 626h99q225 0 225 183q0 129 -213 129h-111v-312z" />
<glyph unicode="&#x29a;" horiz-adv-x="1184" d="M305 581q-87 34 -140.5 104t-53.5 150q0 127 114 201t308 74q253 0 397 -156t144 -430q0 -259 -137 -404t-382 -145q-204 0 -330 95t-126 249q0 176 206 262zM691 493h-105q-290 0 -290 -169q0 -89 73 -145t189 -56q173 0 267.5 105t94.5 299q0 202 -99.5 318.5 t-271.5 116.5q-114 0 -186.5 -43t-72.5 -111q0 -80 78 -123t221 -43h102v-149z" />
<glyph unicode="&#x29b;" horiz-adv-x="1213" d="M1049 911q-226 51 -350 51q-184 0 -282.5 -110t-98.5 -316q0 -202 97.5 -312.5t275.5 -110.5q66 0 162 15v342h198v-441q-214 -54 -367 -54q-277 0 -425 147t-148 421q0 272 150.5 419.5t426.5 147.5q87 0 189 -13l24 -3v127q0 383 302 383q75 0 158 -20v-149 q-65 27 -141 27q-97 0 -134 -52.5t-37 -193.5v-305z" />
<glyph unicode="&#x29c;" horiz-adv-x="1278" d="M197 0v1086h198v-441h487v441h198v-1086h-198v497h-487v-497h-198z" />
<glyph unicode="&#x29d;" horiz-adv-x="993" d="M464 1086h197v-963h297v-148h-297q0 -168 -120.5 -281t-300.5 -113q-120 0 -201 75t-81 186q0 143 120 223q87 58 301 58h85v963zM464 1283v197h197v-197h-197zM464 -25h-137q-221 0 -221 -130q0 -116 144 -116q97 0 155.5 63t58.5 169v14z" />
<glyph unicode="&#x29e;" horiz-adv-x="1197" d="M999 1086v-1481h-197v922l-460 -527h-212l439 506l-530 580h252l511 -557v557h197z" />
<glyph unicode="&#x29f;" horiz-adv-x="944" d="M197 0v1086h198v-938h499v-148h-697z" />
<glyph unicode="&#x2a0;" horiz-adv-x="1289" d="M894 827q-153 135 -290 135q-135 0 -209 -113t-74 -320q0 -381 252 -381q164 0 321 179v500zM894 1276q0 155 85 241.5t237 86.5q73 0 147 -21v-154q-62 27 -125 27q-79 0 -112.5 -49.5t-33.5 -167.5v-1634h-198v599q-120 -229 -362 -229q-196 0 -308.5 143t-112.5 391 q0 271 127.5 436t335.5 165q193 0 320 -148v314z" />
<glyph unicode="&#x2a1;" horiz-adv-x="938" d="M271 370h-203v148h203v17q0 103 45.5 182t170.5 196l48 44q168 155 168 287q0 100 -67 156t-187 56q-162 0 -332 -76v162q191 62 363 62q192 0 303 -91.5t111 -249.5q0 -105 -43 -176t-194 -217l-46 -45q-98 -94 -120.5 -137.5t-22.5 -140.5l1 -29h320v-148h-320l-1 -370 h-197v370z" />
<glyph unicode="&#x2a2;" horiz-adv-x="938" d="M666 370v-370h-197v370h-321v148h321v29q0 97 -22 140.5t-120 137.5l-46 45q-151 145 -194.5 217t-43.5 176q0 158 111.5 249.5t302.5 91.5q172 0 364 -62v-162q-171 76 -336 76q-117 0 -183.5 -56.5t-66.5 -155.5q0 -132 167 -287l48 -44q127 -117 171.5 -196t44.5 -185 v-14h204v-148h-204z" />
<glyph unicode="&#x2a3;" horiz-adv-x="2131" d="M2020 0h-1126v204q-120 -229 -362 -229q-196 0 -308.5 143t-112.5 391q0 271 127.5 436t335.5 165q193 0 320 -148v617h198v-493h915v-148l-672 -790h685v-148zM894 827q-153 135 -290 135q-135 0 -209 -113t-74 -320q0 -381 252 -381q164 0 321 179v500zM1092 938v-790 l672 790h-672z" />
<glyph unicode="&#x2a4;" horiz-adv-x="2042" d="M1092 0h-198v204q-120 -229 -362 -229q-196 0 -308.5 143t-112.5 391q0 271 127.5 436t335.5 165q193 0 320 -148v617h198v-493h820v-148l-436 -462q218 -11 345.5 -126t127.5 -300q0 -200 -155 -342q-139 -127 -393 -127q-105 0 -260 32v163q171 -47 264 -47 q151 0 243 82t92 217q0 151 -118 233.5t-333 82.5v149l419 445h-616v-938zM894 827q-153 135 -290 135q-135 0 -209 -113t-74 -320q0 -381 252 -381q164 0 321 179v500z" />
<glyph unicode="&#x2a5;" horiz-adv-x="2400" d="M1537 0h-643v204q-120 -229 -362 -229q-196 0 -308.5 143t-112.5 391q0 271 127.5 436t335.5 165q193 0 320 -148v617h198v-493h907v-148l-668 -784h284q243 395 506 395q107 0 177.5 -64.5t70.5 -163.5q0 -166 -138 -243.5t-433 -77.5h-98q-69 -142 -85 -296h-150 q13 162 72 296zM894 827q-153 135 -290 135q-135 0 -209 -113t-74 -320q0 -381 252 -381q164 0 321 179v500zM1092 938v-784l664 784h-664zM1789 154h51q381 0 381 159q0 42 -29 71t-70 29q-142 0 -317 -237z" />
<glyph unicode="&#x2a6;" horiz-adv-x="1624" d="M1394 1077v-164q-165 49 -263 49q-86 0 -137.5 -37.5t-51.5 -100.5q0 -89 144 -150l95 -40q161 -68 228 -143.5t67 -188.5q0 -143 -113 -235t-289 -92q-135 0 -328 63v181q193 -96 336 -96q85 0 141 46t56 115q0 101 -156 167l-116 49q-254 106 -254 306q0 71 29 131 l-380 1v-602q0 -213 184 -213q39 0 95 13v-136q-91 -25 -158 -25q-150 0 -234 86t-84 239v638h-136v148h136v197l197 19v-216h552q80 24 175 24q90 0 224 -25z" />
<glyph unicode="&#x2a7;" horiz-adv-x="1439" d="M896 1086v12q0 506 386 506q110 0 218 -40v-162q-110 54 -214 54q-113 0 -153 -77t-40 -293v-987q0 -518 -385 -518q-95 0 -213 34v163q111 -49 208 -49q107 0 150 81t43 285v843h-494v-602q0 -213 184 -213q39 0 95 13v-136q-91 -25 -158 -25q-150 0 -234 86t-84 239 v638h-136v148h136v197l197 19v-216h494z" />
<glyph unicode="&#x2a8;" horiz-adv-x="1802" d="M205 938h-136v148h136v197l197 19v-216h728q99 24 216 24q136 0 252 -32v-165q-135 49 -273 49q-161 0 -252.5 -105.5t-91.5 -291.5q0 -174 86 -286q80 106 192.5 169.5t220.5 63.5q111 0 185.5 -66.5t74.5 -166.5q0 -129 -112 -216.5t-277 -87.5q-145 0 -266 64 q-54 -118 -54 -236h-150q0 176 80 318q-189 162 -189 440q0 222 127 376l-497 1v-602q0 -213 184 -213q39 0 95 13v-136q-91 -25 -158 -25q-150 0 -234 86t-84 239v638zM1176 182q93 -59 190 -59q89 0 157.5 47t68.5 109q0 85 -114 85q-147 0 -302 -182z" />
<glyph unicode="&#x2b0;" horiz-adv-x="785" d="M115 924v948h148v-416q89 138 227 138q86 0 137 -55t51 -148v-467h-148v425q0 124 -84 124q-96 0 -183 -131v-418h-148z" />
<glyph unicode="&#x2b1;" horiz-adv-x="785" d="M263 1441q89 138 227 138q86 0 137 -55t51 -148v-452h-148v411q0 123 -84 123q-96 0 -183 -130v-404h-148v591q0 371 300 371q84 0 171 -29v-112q-88 30 -151 30q-99 0 -135.5 -55t-36.5 -205v-74z" />
<glyph unicode="&#x2b2;" horiz-adv-x="504" d="M12 701v106q80 -35 129 -35q57 0 78.5 33t21.5 119v655h148v-649q0 -258 -233 -258q-65 0 -144 29zM241 1727v134h148v-134h-148z" />
<glyph unicode="&#x2b3;" horiz-adv-x="531" d="M115 924v655h148v-123q70 138 206 138q17 0 36 -4v-134q-34 12 -62 12q-109 0 -180 -120v-424h-148z" />
<glyph unicode="&#x2b4;" horiz-adv-x="542" d="M427 1579v-655h-148v123q-70 -138 -205 -138q-18 0 -37 4v134q34 -12 62 -12q109 0 180 120v424h148z" />
<glyph unicode="&#x2b5;" horiz-adv-x="656" d="M427 1579v-633q0 -98 22 -130.5t88 -32.5q47 0 94 21v-116q-56 -16 -110 -16q-242 0 -242 246v129q-70 -138 -205 -138q-18 0 -37 4v134q34 -12 62 -12q109 0 180 120v424h148z" />
<glyph unicode="&#x2b6;" horiz-adv-x="718" d="M115 1579h148v-259h68l182 259h181l-210 -298q122 -55 122 -188q0 -165 -198 -165h-293v651zM263 1224v-200h69q126 0 126 87q0 113 -130 113h-65z" />
<glyph unicode="&#x2b7;" horiz-adv-x="1004" d="M211 924l-185 655h140l137 -483l146 483h136l129 -484l152 484h113l-205 -655h-144l-129 478l-145 -478h-145z" />
<glyph unicode="&#x2b8;" horiz-adv-x="679" d="M135 687l127 237l-248 655h159l175 -465l197 465h123l-381 -892h-152z" />
<glyph unicode="&#x2b9;" horiz-adv-x="592" d="M123 987l197 592h222l-296 -592h-123z" />
<glyph unicode="&#x2ba;" horiz-adv-x="1036" d="M123 987l197 592h222l-296 -592h-123zM567 987l197 592h222l-296 -592h-123z" />
<glyph unicode="&#x2bb;" horiz-adv-x="648" d="M447 1579v-74q-96 -27 -96 -226v-21h96v-246h-247v214q0 327 247 353z" />
<glyph unicode="&#x2bc;" horiz-adv-x="648" d="M200 1012v74q96 27 96 226v20h-96v247h247v-214q0 -329 -247 -353z" />
<glyph unicode="&#x2bd;" horiz-adv-x="648" d="M447 1012q-247 24 -247 353v214h247v-247h-96v-20q0 -199 96 -226v-74z" />
<glyph unicode="&#x2be;" horiz-adv-x="642" d="M167 1012v123h62q67 0 114 47t47 114q0 66 -47 113t-114 47h-62v123h62q118 0 201 -82.5t83 -201.5q0 -118 -82.5 -200.5t-201.5 -82.5h-62z" />
<glyph unicode="&#x2bf;" horiz-adv-x="642" d="M476 1012h-62q-119 0 -201.5 82.5t-82.5 200.5q0 119 83 201.5t201 82.5h62v-123h-62q-67 0 -114 -47t-47 -113q0 -67 47 -114t114 -47h62v-123z" />
<glyph unicode="&#x2c0;" horiz-adv-x="668" d="M215 924v29q0 105 89 205l40 45q90 101 90 171q0 117 -146 117q-92 0 -202 -50v118q116 35 222 35q131 0 208 -55t77 -148q0 -89 -99 -183l-39 -36q-92 -87 -92 -186v-62h-148z" />
<glyph unicode="&#x2c1;" horiz-adv-x="668" d="M452 924h-148v62q0 99 -92 186l-39 36q-99 94 -99 183q0 94 77.5 148.5t209.5 54.5q104 0 220 -35v-118q-110 50 -202 50q-146 0 -146 -115q0 -72 90 -173l40 -45q89 -100 89 -205v-29z" />
<glyph unicode="&#x2c2;" horiz-adv-x="823" d="M675 966l-638 319l638 319v-138l-360 -182l360 -181v-137z" />
<glyph unicode="&#x2c3;" horiz-adv-x="823" d="M148 966v137l360 183l-360 180v138l638 -319z" />
<glyph unicode="&#x2c4;" horiz-adv-x="823" d="M93 966l319 638l319 -638h-138l-182 360l-180 -360h-138z" />
<glyph unicode="&#x2c5;" horiz-adv-x="823" d="M731 1604l-319 -638l-319 638h138l182 -360l180 360h138z" />
<glyph unicode="&#x2c6;" horiz-adv-x="1258" d="M279 1283l241 321h218l241 -321h-148l-203 202l-201 -202h-148z" />
<glyph unicode="&#x2c7;" horiz-adv-x="1258" d="M979 1604l-241 -321h-218l-241 321h148l203 -202l201 202h148z" />
<glyph unicode="&#x2c8;" horiz-adv-x="494" d="M173 987v592h148v-592h-148z" />
<glyph unicode="&#x2c9;" horiz-adv-x="1258" d="M308 1283v148h642v-148h-642z" />
<glyph unicode="&#x2ca;" horiz-adv-x="1258" d="M395 1283l241 321h228l-321 -321h-148z" />
<glyph unicode="&#x2cb;" horiz-adv-x="1258" d="M864 1283h-148l-321 321h228z" />
<glyph unicode="&#x2cc;" horiz-adv-x="494" d="M173 -419v518h148v-518h-148z" />
<glyph unicode="&#x2cd;" horiz-adv-x="1258" d="M308 -346v149h642v-149h-642z" />
<glyph unicode="&#x2ce;" horiz-adv-x="1258" d="M864 -518h-148l-321 321h228z" />
<glyph unicode="&#x2cf;" horiz-adv-x="1258" d="M395 -518l241 321h228l-321 -321h-148z" />
<glyph unicode="&#x2d0;" horiz-adv-x="839" d="M641 0h-444l222 444zM197 1086h444l-222 -444z" />
<glyph unicode="&#x2d1;" horiz-adv-x="839" d="M197 1086h444l-222 -444z" />
<glyph unicode="&#x2d2;" horiz-adv-x="592" d="M123 321v123h62q67 0 114 47t47 114t-47 113.5t-114 46.5h-62v123h62q118 0 201 -82.5t83 -200.5q0 -119 -82.5 -201.5t-201.5 -82.5h-62z" />
<glyph unicode="&#x2d3;" horiz-adv-x="592" d="M469 321h-62q-119 0 -201.5 82.5t-82.5 201.5q0 118 83 200.5t201 82.5h62v-123h-62q-67 0 -114 -46.5t-47 -113.5t47 -114t114 -47h62v-123z" />
<glyph unicode="&#x2d4;" horiz-adv-x="963" d="M148 469v123h271v296h124v-296h271v-123h-666z" />
<glyph unicode="&#x2d5;" horiz-adv-x="963" d="M814 888v-123h-271v-296h-124v296h-271v123h666z" />
<glyph unicode="&#x2d6;" horiz-adv-x="963" d="M815 642v-124h-272v-271h-123v271h-272v124h272v271h123v-271h272z" />
<glyph unicode="&#x2d7;" horiz-adv-x="963" d="M148 395v370h123v-123h420v123h123v-370h-123v123h-420v-123h-123z" />
<glyph unicode="&#x2d8;" horiz-adv-x="1258" d="M296 1579h123q32 -148 210 -148t210 148h123q-15 -134 -106 -215t-227 -81t-226.5 80.5t-106.5 215.5z" />
<glyph unicode="&#x2d9;" horiz-adv-x="1258" d="M530 1283v197h197v-197h-197z" />
<glyph unicode="&#x2da;" horiz-adv-x="1258" d="M629 1283q-95 0 -161 66t-66 161q0 94 66 160.5t161 66.5q94 0 160.5 -66t66.5 -161t-66 -161t-161 -66zM629 1369q59 0 100 41t41 100t-41.5 100t-99.5 41q-59 0 -100 -41t-41 -100q0 -58 41 -99.5t100 -41.5z" />
<glyph unicode="&#x2db;" horiz-adv-x="1258" d="M658 0h107q-128 -77 -128 -178q0 -97 113 -97q57 0 92 15v-81q-60 -29 -138 -29q-92 0 -148 44t-56 115q0 125 158 211z" />
<glyph unicode="&#x2dc;" horiz-adv-x="1258" d="M296 1283q11 234 185 234q73 0 135 -38l60 -37q56 -35 85 -35q69 0 78 110h123q-11 -234 -185 -234q-73 0 -135 39l-60 37q-56 34 -85 34q-69 0 -78 -110h-123z" />
<glyph unicode="&#x2dd;" horiz-adv-x="1258" d="M237 1283l241 321h191l-321 -321h-111zM589 1283l240 321h191l-320 -321h-111z" />
<glyph unicode="&#x2de;" horiz-adv-x="535" d="M-122 724l417 112v-220q0 -125 24 -170t90 -45q44 0 102 33v-154q-89 -27 -137 -27q-227 0 -227 315v75l-269 -75v156z" />
<glyph unicode="&#x2e0;" horiz-adv-x="776" d="M492 1084q103 -176 103 -293q0 -95 -58 -155t-149 -60q-83 0 -136 51t-53 131q0 135 129 320q-78 187 -156.5 280t-171.5 108l73 113q192 -11 359 -376q186 242 186 355q0 10 -5 21h134q5 -18 5 -32q0 -66 -84 -215t-176 -248zM390 955q-63 -93 -63 -177q0 -88 61 -88 q62 0 62 76q0 79 -60 189z" />
<glyph unicode="&#x2e1;" horiz-adv-x="378" d="M115 924v948h148v-948h-148z" />
<glyph unicode="&#x2e2;" horiz-adv-x="707" d="M542 1572v-111q-103 33 -170 33q-109 0 -109 -76q0 -49 84 -83l54 -22q192 -77 192 -201q0 -89 -72 -146t-184 -57q-103 0 -222 37v119q124 -56 214 -56q113 0 113 86q0 54 -92 92l-64 26q-168 69 -168 191q0 190 249 190q65 0 151 -17z" />
<glyph unicode="&#x2e3;" horiz-adv-x="868" d="M111 924l237 334l-229 321h172l166 -229l153 229h130l-216 -327l233 -328h-171l-172 238l-170 -238h-133z" />
<glyph unicode="&#x2e4;" horiz-adv-x="668" d="M427 924h-148v303q0 98 -92 185l-39 37q-99 94 -99 183q0 93 77.5 148t209.5 55q104 0 220 -35v-118q-110 49 -202 49q-146 0 -146 -114q0 -72 90 -174l40 -45q89 -100 89 -205v-269z" />
<glyph unicode="&#x2e5;" horiz-adv-x="896" d="M37 1357v123h662v-1480h-136v1357h-526z" />
<glyph unicode="&#x2e6;" horiz-adv-x="896" d="M37 1021v123h526v336h136v-1480h-136v1021h-526z" />
<glyph unicode="&#x2e7;" horiz-adv-x="896" d="M37 679v123h526v678h136v-1480h-136v679h-526z" />
<glyph unicode="&#x2e8;" horiz-adv-x="896" d="M37 336v124h526v1020h136v-1480h-136v336h-526z" />
<glyph unicode="&#x2e9;" horiz-adv-x="896" d="M699 0h-662v123h526v1357h136v-1480z" />
<glyph unicode="&#x300;" horiz-adv-x="0" d="M-480 1283h-148l-321 321h228z" />
<glyph unicode="&#x301;" horiz-adv-x="0" d="M-776 1283l241 321h228l-321 -321h-148z" />
<glyph unicode="&#x302;" horiz-adv-x="0" d="M-978 1283l241 321h218l241 -321h-148l-203 202l-201 -202h-148z" />
<glyph unicode="&#x303;" horiz-adv-x="0" d="M-961 1283q11 234 185 234q73 0 135 -38l60 -37q56 -35 85 -35q69 0 78 110h123q-11 -234 -185 -234q-73 0 -135 39l-60 37q-56 34 -85 34q-69 0 -78 -110h-123z" />
<glyph unicode="&#x304;" horiz-adv-x="0" d="M-912 1283v148h568v-148h-568z" />
<glyph unicode="&#x305;" horiz-adv-x="0" d="M-1257 1604v148h1258v-148h-1258z" />
<glyph unicode="&#x306;" horiz-adv-x="0" d="M-961 1579h123q32 -148 210 -148t210 148h123q-15 -134 -106 -215t-227 -81t-226.5 80.5t-106.5 215.5z" />
<glyph unicode="&#x307;" horiz-adv-x="0" d="M-727 1283v197h197v-197h-197z" />
<glyph unicode="&#x308;" horiz-adv-x="0" d="M-912 1283v173h173v-173h-173zM-517 1283v173h173v-173h-173z" />
<glyph unicode="&#x309;" horiz-adv-x="0" d="M-576 1283h-98v15q0 100 60 155l17 16q40 36 40 55q0 43 -72 43q-41 0 -101 -22v93q66 15 115 15q156 0 156 -115q0 -55 -62 -113l-19 -18q-36 -34 -36 -88v-36z" />
<glyph unicode="&#x30a;" horiz-adv-x="0" d="M-629 1283q-94 0 -160 66t-66 161q0 94 66 160.5t160 66.5q95 0 161 -66t66 -161t-66 -161t-161 -66zM-629 1369q59 0 100 41t41 100t-41 100t-100 41q-58 0 -99 -41t-41 -100q0 -58 41 -99.5t99 -41.5z" />
<glyph unicode="&#x30b;" horiz-adv-x="0" d="M-925 1283l241 321h203l-321 -321h-123zM-573 1283l240 321h204l-321 -321h-123z" />
<glyph unicode="&#x30c;" horiz-adv-x="0" d="M-278 1604l-241 -321h-218l-241 321h148l203 -202l201 202h148z" />
<glyph unicode="&#x30d;" horiz-adv-x="0" d="M-554 1283h-148v370h148v-370z" />
<glyph unicode="&#x30e;" horiz-adv-x="0" d="M-727 1283h-148v370h148v-370zM-382 1283h-148v370h148v-370z" />
<glyph unicode="&#x30f;" horiz-adv-x="0" d="M-331 1283h-124l-320 321h203zM-683 1283h-123l-321 321h204z" />
<glyph unicode="&#x310;" horiz-adv-x="0" d="M-278 1604l-241 -321h-218l-241 321h148l203 -202l201 202h148zM-727 1672v197h198v-197h-198z" />
<glyph unicode="&#x311;" horiz-adv-x="0" d="M-295 1283h-123q-32 148 -210 148t-210 -148h-123q15 135 106 215.5t227 80.5t226.5 -80.5t106.5 -215.5z" />
<glyph unicode="&#x312;" horiz-adv-x="0" d="M-530 1737v-59q-76 -21 -76 -181v-17h76v-197h-197v171q0 263 197 283z" />
<glyph unicode="&#x313;" horiz-adv-x="0" d="M-727 1283v59q76 21 76 181v17h-76v197h197v-171q0 -263 -197 -283z" />
<glyph unicode="&#x314;" horiz-adv-x="0" d="M-530 1283q-197 20 -197 283v171h197v-197h-76v-17q0 -160 76 -181v-59z" />
<glyph unicode="&#x315;" horiz-adv-x="0" d="M-196 1283v59q76 21 76 181v17h-76v197h197v-171q0 -263 -197 -283z" />
<glyph unicode="&#x316;" horiz-adv-x="0" d="M-388 -518h-148l-321 321h228z" />
<glyph unicode="&#x317;" horiz-adv-x="0" d="M-869 -518l241 321h228l-321 -321h-148z" />
<glyph unicode="&#x318;" horiz-adv-x="0" d="M-900 -419v98h271v222h99v-543h-99v223h-271z" />
<glyph unicode="&#x319;" horiz-adv-x="0" d="M-678 -642v543h99v-222h271v-98h-271v-223h-99z" />
<glyph unicode="&#x31a;" horiz-adv-x="0" d="M-122 1086v382h-370v111h493v-493h-123z" />
<glyph unicode="&#x31b;" horiz-adv-x="0" d="M-418 1086h32q141 0 193.5 36.5t52.5 135.5q0 75 -27 139h149q20 -82 20 -158q0 -301 -383 -301h-37v148z" />
<glyph unicode="&#x31c;" horiz-adv-x="0" d="M-490 -651h-49q-95 0 -161 66t-66 161q0 94 66.5 160.5t160.5 66.5h49v-99h-49q-53 0 -90.5 -37.5t-37.5 -90.5q0 -54 37.5 -91.5t90.5 -37.5h49v-98z" />
<glyph unicode="&#x31d;" horiz-adv-x="0" d="M-900 -567v98h222v272h99v-272h222v-98h-543z" />
<glyph unicode="&#x31e;" horiz-adv-x="0" d="M-357 -197v-99h-222v-271h-99v271h-222v99h543z" />
<glyph unicode="&#x31f;" horiz-adv-x="0" d="M-357 -420v-98h-222v-222h-99v222h-222v98h222v223h99v-223h222z" />
<glyph unicode="&#x320;" horiz-adv-x="0" d="M-900 -494v297h99v-99h345v99h99v-297h-99v99h-345v-99h-99z" />
<glyph unicode="&#x321;" horiz-adv-x="0" d="M1 0v-92q0 -154 -85 -241t-236 -87q-73 0 -148 21v154q62 -27 125 -27q80 0 113.5 50t33.5 167v55h197z" />
<glyph unicode="&#x322;" horiz-adv-x="0" d="M-468 0h197v-55q0 -118 33.5 -167.5t113.5 -49.5q63 0 125 27v-154q-75 -21 -148 -21q-151 0 -236 87t-85 241v92z" />
<glyph unicode="&#x323;" horiz-adv-x="0" d="M-727 -395v198h197v-198h-197z" />
<glyph unicode="&#x324;" horiz-adv-x="0" d="M-912 -370v173h173v-173h-173zM-517 -370v173h173v-173h-173z" />
<glyph unicode="&#x325;" horiz-adv-x="0" d="M-629 -651q-94 0 -160 66t-66 161q0 94 66 160.5t160 66.5q95 0 161 -66.5t66 -160.5q0 -95 -66 -161t-161 -66zM-629 -565q59 0 100 41t41 100q0 58 -41 99t-100 41q-58 0 -99 -41t-41 -99q0 -59 41 -100t99 -41z" />
<glyph unicode="&#x326;" horiz-adv-x="0" d="M-727 -651v59q76 21 76 181v16h-76v198h197v-172q0 -263 -197 -282z" />
<glyph unicode="&#x327;" horiz-adv-x="0" d="M-593 0h97l-60 -109q77 0 135.5 -47.5t58.5 -110.5q0 -69 -58.5 -117t-142.5 -48q-72 0 -146 21v81q46 -15 105 -15q103 0 103 74q0 96 -187 96z" />
<glyph unicode="&#x328;" horiz-adv-x="0" d="M-597 0h107q-128 -77 -128 -178q0 -97 113 -97q57 0 92 15v-81q-60 -29 -138 -29q-92 0 -148 44t-56 115q0 125 158 211z" />
<glyph unicode="&#x329;" horiz-adv-x="0" d="M-554 -568h-148v371h148v-371z" />
<glyph unicode="&#x32a;" horiz-adv-x="0" d="M-900 -518v321h543v-321h-99v222h-345v-222h-99z" />
<glyph unicode="&#x32b;" horiz-adv-x="0" d="M-567 -197q11 -136 126 -136q93 0 121 136h124q-14 -120 -79 -189.5t-162 -69.5q-116 0 -191 137q-75 -137 -191 -137q-97 0 -162 69.5t-79 189.5h123q28 -136 121 -136q116 0 126 136h123z" />
<glyph unicode="&#x32c;" horiz-adv-x="0" d="M-278 -197l-241 -321h-218l-241 321h148l203 -202l201 202h148z" />
<glyph unicode="&#x32d;" horiz-adv-x="0" d="M-978 -518l241 321h218l241 -321h-148l-203 201l-201 -201h-148z" />
<glyph unicode="&#x32e;" horiz-adv-x="0" d="M-961 -197h123q32 -148 210 -148t210 148h123q-15 -135 -106 -216t-227 -81t-226.5 81t-106.5 216z" />
<glyph unicode="&#x32f;" horiz-adv-x="0" d="M-295 -494h-123q-32 148 -210 148t-210 -148h-123q15 135 106 216t227 81t226.5 -81t106.5 -216z" />
<glyph unicode="&#x330;" horiz-adv-x="0" d="M-961 -432q11 235 185 235q73 0 135 -39l60 -37q56 -35 85 -35q69 0 78 111h123q-11 -235 -185 -235q-73 0 -135 39l-60 37q-56 34 -85 34q-69 0 -78 -110h-123z" />
<glyph unicode="&#x331;" horiz-adv-x="0" d="M-949 -346v149h642v-149h-642z" />
<glyph unicode="&#x332;" horiz-adv-x="0" d="M-1257 -580v148h1258v-148h-1258z" />
<glyph unicode="&#x333;" horiz-adv-x="0" d="M-1257 -555v123h1258v-123h-1258zM-1257 -901v124h1258v-124h-1258z" />
<glyph unicode="&#x334;" horiz-adv-x="0" d="M-998 444h-148q0 145 76.5 236.5t196.5 91.5q88 0 193 -64l132 -80q120 -74 160 -74q59 0 94.5 49.5t35.5 131.5h148q0 -144 -76.5 -236t-196.5 -92q-88 0 -193 64l-132 81q-119 73 -160 73q-59 0 -94.5 -49t-35.5 -132z" />
<glyph unicode="&#x335;" horiz-adv-x="0" d="M-1146 481v148h1036v-148h-1036z" />
<glyph unicode="&#x336;" horiz-adv-x="0" d="M-1257 481v148h1258v-148h-1258z" />
<glyph unicode="&#x337;" horiz-adv-x="0" d="M-1084 0h-174l1086 1086h174z" />
<glyph unicode="&#x338;" horiz-adv-x="0" d="M-1166 -197l938 1875h138l-938 -1875h-138z" />
<glyph unicode="&#x339;" horiz-adv-x="0" d="M-745 -567v111h49q74 0 74 73q0 75 -74 75h-49v111h49q77 0 131 -54.5t54 -130.5q0 -77 -54 -131t-131 -54h-49z" />
<glyph unicode="&#x33a;" horiz-adv-x="0" d="M-357 -197v-321h-543v321h99v-223h345v223h99z" />
<glyph unicode="&#x33b;" horiz-adv-x="0" d="M-900 -617v420h543v-420h-543zM-801 -518h345v222h-345v-222z" />
<glyph unicode="&#x33c;" horiz-adv-x="0" d="M-690 -456q-10 135 -126 135q-93 0 -121 -135h-123q14 119 79 189t162 70q116 0 191 -138q74 138 191 138q97 0 162 -70t79 -189h-124q-28 135 -121 135q-115 0 -126 -135h-123z" />
<glyph unicode="&#x33d;" horiz-adv-x="0" d="M-890 1269l192 192l-192 192h139l123 -122l122 122h139l-192 -192l192 -192h-139l-122 122l-123 -122h-139z" />
<glyph unicode="&#x33e;" horiz-adv-x="0" d="M-596 1283h-116q73 68 73 101q0 21 -28 51l-21 21q-39 40 -39 77q0 49 76 120h121q-81 -67 -81 -106q0 -21 15 -38l13 -15l19 -21q42 -48 42 -77q0 -46 -74 -113z" />
<glyph unicode="&#x33f;" horiz-adv-x="0" d="M-1257 1604v148h1258v-148h-1258zM-1257 1926v148h1258v-148h-1258z" />
<glyph unicode="&#x340;" horiz-adv-x="0" d="M-788 1777h-148l-321 320h228z" />
<glyph unicode="&#x341;" horiz-adv-x="0" d="M-468 1777l241 320h228l-321 -320h-148z" />
<glyph unicode="&#x344;" horiz-adv-x="1" d="M-1022 1283v173h173v-173h-173zM-701 1283l-25 321h197l-24 -321h-148zM-405 1283v173h173v-173h-173z" />
<glyph unicode="&#x345;" horiz-adv-x="0" d="M-345 -381q-75 -39 -154 -39q-78 0 -110 45t-32 154v98h154v-55q0 -100 60 -100q41 0 82 24v-127z" />
<glyph unicode="&#x374;" horiz-adv-x="666" d="M148 888l197 592h222l-296 -592h-123z" />
<glyph unicode="&#x375;" horiz-adv-x="666" d="M148 0l197 592h222l-296 -592h-123z" />
<glyph unicode="&#x37a;" horiz-adv-x="1258" d="M842 -393q-75 -39 -154 -39q-78 0 -110 44.5t-32 153.5v111h154v-55q0 -112 60 -112q41 0 82 23v-126z" />
<glyph unicode="&#x37e;" horiz-adv-x="648" d="M225 -321v74q71 37 71 224v23h-71v197h197v-166q0 -303 -197 -352zM225 888v198h197v-198h-197z" />
<glyph unicode="&#x384;" horiz-adv-x="1258" d="M556 1283l-25 321h197l-24 -321h-148z" />
<glyph unicode="&#x385;" horiz-adv-x="1258" d="M234 1283v173h173v-173h-173zM555 1283l-25 321h197l-24 -321h-148zM851 1283v173h173v-173h-173z" />
<glyph unicode="&#x386;" horiz-adv-x="1413" d="M17 0l587 1480h208l578 -1480h-227l-161 410h-627l-163 -410h-195zM436 566h505l-252 638zM131 1160l-25 321h197l-24 -321h-148z" />
<glyph unicode="&#x388;" horiz-adv-x="1327" d="M407 0v1480h827v-157h-617v-475h517v-155h-517v-536h660v-157h-870zM37 1160l-25 321h197l-24 -321h-148z" />
<glyph unicode="&#x389;" horiz-adv-x="1721" d="M407 0v1480h210v-624h704v624h210v-1480h-210v699h-704v-699h-210zM37 1160l-25 321h197l-24 -321h-148z" />
<glyph unicode="&#x38a;" horiz-adv-x="810" d="M409 0v1480h210v-1480h-210zM37 1160l-25 321h197l-24 -321h-148z" />
<glyph unicode="&#x38c;" horiz-adv-x="1767" d="M971 -37q-315 0 -503.5 211.5t-188.5 565.5t188.5 565.5t503.5 211.5t503.5 -211.5t188.5 -565.5t-188.5 -565.5t-503.5 -211.5zM971 120q221 0 345 164.5t124 457.5q0 291 -124 454.5t-345 163.5t-345 -163.5t-124 -454.5q0 -293 124 -457.5t345 -164.5zM37 1160 l-25 321h197l-24 -321h-148z" />
<glyph unicode="&#x38e;" horiz-adv-x="1676" d="M907 0v479q0 352 -147.5 590.5t-364.5 238.5v172h14q490 0 625 -597q91 244 258 406.5t355 190.5v-148q-231 -66 -386.5 -311t-155.5 -542v-479h-198zM37 1160l-25 321h197l-24 -321h-148z" />
<glyph unicode="&#x38f;" horiz-adv-x="1787" d="M244 0v154h407q-358 270 -358 678q0 300 194 492.5t497 192.5t497 -192t194 -493q0 -409 -358 -678h407v-154h-610v154q339 229 339 659q0 259 -124 404.5t-345 145.5q-218 0 -343.5 -144.5t-125.5 -396.5q0 -438 340 -668v-154h-611zM37 1160l-25 321h197l-24 -321h-148 z" />
<glyph unicode="&#x390;" horiz-adv-x="753" d="M703 17q-92 -42 -194 -42q-153 0 -238 95q-74 83 -74 312v704h197v-685q0 -152 35.5 -215t121.5 -63q73 0 152 42v-148zM-99 1283v173h173v-173h-173zM222 1283l-25 321h197l-24 -321h-148zM518 1283v173h173v-173h-173z" />
<glyph unicode="&#x391;" horiz-adv-x="1413" d="M17 0l587 1480h208l578 -1480h-227l-161 410h-627l-163 -410h-195zM436 566h505l-252 638z" />
<glyph unicode="&#x392;" horiz-adv-x="1178" d="M191 0v1480h384q222 0 340.5 -84t118.5 -242q0 -128 -79 -228t-225 -155q363 -111 363 -401q0 -130 -80 -231q-61 -77 -147 -108t-239 -31h-436zM399 157h43q231 0 299 29q130 55 130 204q0 132 -118 219.5t-295 87.5h-59v-540zM399 830h67q169 0 261 72t92 205 q0 216 -338 216h-82v-493z" />
<glyph unicode="&#x393;" horiz-adv-x="1043" d="M191 0v1480h828v-172h-618v-1308h-210z" />
<glyph unicode="&#x394;" horiz-adv-x="1434" d="M49 0v185l565 1295h208l563 -1295v-185h-1336zM230 185h928l-463 1064z" />
<glyph unicode="&#x395;" horiz-adv-x="1110" d="M191 0v1480h827v-157h-617v-475h517v-155h-517v-536h660v-157h-870z" />
<glyph unicode="&#x396;" horiz-adv-x="1238" d="M95 0v168l795 1155h-746v157h998v-157l-795 -1155h795v-168h-1047z" />
<glyph unicode="&#x397;" horiz-adv-x="1505" d="M191 0v1480h210v-624h704v624h210v-1480h-210v699h-704v-699h-210z" />
<glyph unicode="&#x398;" horiz-adv-x="1592" d="M796 -37q-315 0 -503.5 211.5t-188.5 565.5t188.5 565.5t503.5 211.5t503.5 -211.5t188.5 -565.5q0 -353 -188.5 -565t-503.5 -212zM796 120q221 0 345 164t124 456q0 293 -124 456.5t-345 163.5t-345 -163.5t-124 -454.5q0 -293 124 -457.5t345 -164.5zM518 685v160h556 v-160h-556z" />
<glyph unicode="&#x399;" horiz-adv-x="590" d="M190 0v1480h210v-1480h-210z" />
<glyph unicode="&#x39a;" horiz-adv-x="1337" d="M191 0v1480h197v-728l599 728h211l-580 -706l683 -774h-266l-647 750v-750h-197z" />
<glyph unicode="&#x39b;" horiz-adv-x="1332" d="M19 0l537 1480h197l561 -1480h-211l-467 1232l-446 -1232h-171z" />
<glyph unicode="&#x39c;" horiz-adv-x="1764" d="M191 0v1480h291l410 -1145l422 1145h260v-1480h-196v1204l-408 -1105h-203l-396 1108v-1207h-180z" />
<glyph unicode="&#x39d;" horiz-adv-x="1513" d="M191 0v1480h206l745 -1143v1143h180v-1480h-205l-746 1143v-1143h-180z" />
<glyph unicode="&#x39e;" horiz-adv-x="1246" d="M37 0v185h1172v-185h-1172zM191 679v185h864v-185h-864zM93 1295v185h1061v-185h-1061z" />
<glyph unicode="&#x39f;" horiz-adv-x="1591" d="M796 -37q-315 0 -503.5 211.5t-188.5 565.5t188.5 565.5t503.5 211.5t503.5 -211.5t188.5 -565.5t-188.5 -565.5t-503.5 -211.5zM796 120q221 0 345 164.5t124 457.5q0 291 -124 454.5t-345 163.5t-345 -163.5t-124 -454.5q0 -293 124 -457.5t345 -164.5z" />
<glyph unicode="&#x3a0;" horiz-adv-x="1555" d="M216 0v1323h-136v157h1395v-157h-136v-1323h-209v1323h-705v-1323h-209z" />
<glyph unicode="&#x3a1;" horiz-adv-x="1132" d="M191 0v1480h403q174 0 268.5 -28.5t154.5 -100.5q79 -95 79 -259q0 -236 -160 -370t-444 -134h-93v-588h-208zM399 747h85q187 0 289 86t102 244q0 132 -80.5 189t-266.5 57h-129v-576z" />
<glyph unicode="&#x3a3;" horiz-adv-x="1215" d="M62 0v185l573 557l-524 584v154h1018v-154h-739l497 -554l-606 -587h879v-185h-1098z" />
<glyph unicode="&#x3a4;" horiz-adv-x="1295" d="M543 0v1323h-525v157h1260v-157h-525v-1323h-210z" />
<glyph unicode="&#x3a5;" horiz-adv-x="1307" d="M538 0v479q0 352 -147.5 590.5t-364.5 238.5v172h14q490 0 625 -597q91 244 258 406.5t355 190.5v-148q-231 -66 -386.5 -311t-155.5 -542v-479h-198z" />
<glyph unicode="&#x3a6;" horiz-adv-x="1443" d="M623 0v223h-27q-218 0 -376 152t-158 361q0 227 159 374.5t402 147.5v222h197v-222q244 0 403 -147.5t159 -374.5q0 -210 -158.5 -361.5t-378.5 -151.5h-25v-223h-197zM623 1105q-159 0 -255.5 -102t-96.5 -271q0 -160 96.5 -257t255.5 -97v727zM820 1105v-727 q159 0 255.5 97t96.5 257q0 169 -96 271t-256 102z" />
<glyph unicode="&#x3a7;" horiz-adv-x="1282" d="M16 0l491 743l-467 737h248l356 -558l374 558h198l-473 -715l485 -765h-248l-376 587l-389 -587h-199z" />
<glyph unicode="&#x3a8;" horiz-adv-x="1499" d="M641 0v623q-188 14 -284.5 103t-126.5 278l-20 126q-21 127 -53.5 161.5t-130.5 34.5h-14v154h17q175 0 246.5 -60.5t103.5 -237.5l20 -115q30 -163 78.5 -225t146.5 -62q5 0 17 1v699h216v-699q12 -1 17 -1q98 0 146.5 62t78.5 225l21 115q32 177 103 237.5t246 60.5h17 v-154h-14q-98 0 -130.5 -34.5t-52.5 -161.5l-21 -126q-30 -189 -126 -278t-285 -103v-623h-216z" />
<glyph unicode="&#x3a9;" d="M74 0v154h407q-358 270 -358 678q0 300 194 492.5t497 192.5t497 -192t194 -493q0 -409 -358 -678h407v-154h-610v154q339 229 339 659q0 259 -124 404.5t-345 145.5q-218 0 -343.5 -144.5t-125.5 -396.5q0 -438 340 -668v-154h-611z" />
<glyph unicode="&#x3aa;" horiz-adv-x="590" d="M190 0v1480h210v-1480h-210zM11 1604v173h173v-173h-173zM406 1604v173h173v-173h-173z" />
<glyph unicode="&#x3ab;" horiz-adv-x="1307" d="M538 0v479q0 352 -147.5 590.5t-364.5 238.5v172h14q490 0 625 -597q91 244 258 406.5t355 190.5v-148q-231 -66 -386.5 -311t-155.5 -542v-479h-198zM381 1604v173h173v-173h-173zM776 1604v173h173v-173h-173z" />
<glyph unicode="&#x3ac;" horiz-adv-x="1468" d="M997 616q121 212 121 470h210q-43 -304 -258 -607q173 -317 295 -479h-228q-20 34 -28 47l-66 106l-67 115q-9 17 -32 55q-257 -348 -467 -348q-157 0 -251 134.5t-94 357.5q0 265 131.5 454.5t314.5 189.5q115 0 202.5 -103.5t216.5 -391.5zM876 446l-53 116 q-102 223 -161.5 308.5t-112.5 85.5q-82 0 -144.5 -135.5t-62.5 -313.5q0 -179 47 -281.5t130 -102.5q136 0 357 323zM685 1283l-25 321h197l-24 -321h-148z" />
<glyph unicode="&#x3ad;" horiz-adv-x="1080" d="M956 189v-153q-165 -61 -319 -61q-241 0 -383.5 154.5t-142.5 415.5q0 270 142 418t403 148q139 0 288 -37v-161q-181 49 -305 49q-139 0 -223.5 -84t-96.5 -236h563v-149h-563q13 -192 97.5 -281t254.5 -89q135 0 285 66zM568 1283l-25 321h197l-24 -321h-148z" />
<glyph unicode="&#x3ae;" horiz-adv-x="1274" d="M201 0v753q0 182 -66 333h220q27 -88 43 -206q175 230 382 230q159 0 234 -97.5t75 -303.5v-1104h-197v1080q0 240 -178 240q-174 0 -316 -216v-709h-197zM586 1283l-25 321h197l-24 -321h-148z" />
<glyph unicode="&#x3af;" horiz-adv-x="753" d="M703 17q-92 -42 -194 -42q-153 0 -238 95q-74 83 -74 312v704h197v-685q0 -152 35.5 -215t121.5 -63q73 0 152 42v-148zM222 1283l-25 321h197l-24 -321h-148z" />
<glyph unicode="&#x3b0;" horiz-adv-x="1246" d="M185 1086h197v-543q0 -261 58 -335q65 -85 186 -85q136 0 221 112.5t85 293.5q0 123 -44 282t-110 275h202q118 -267 118 -555q0 -247 -132.5 -401.5t-344.5 -154.5q-196 0 -323 123q-66 65 -89.5 148t-23.5 255v585zM210 1283v173h173v-173h-173zM531 1283l-25 321h197 l-24 -321h-148zM827 1283v173h173v-173h-173z" />
<glyph unicode="&#x3b1;" horiz-adv-x="1468" d="M997 616q121 212 121 470h210q-43 -304 -258 -607q173 -317 295 -479h-228q-20 34 -28 47l-66 106l-67 115q-9 17 -32 55q-257 -348 -467 -348q-157 0 -251 134.5t-94 357.5q0 265 131.5 454.5t314.5 189.5q115 0 202.5 -103.5t216.5 -391.5zM876 446l-53 116 q-102 223 -161.5 308.5t-112.5 85.5q-82 0 -144.5 -135.5t-62.5 -313.5q0 -179 47 -281.5t130 -102.5q136 0 357 323z" />
<glyph unicode="&#x3b2;" horiz-adv-x="1234" d="M197 -395v1449q0 260 117 405t326 145q172 0 278 -90t106 -237q0 -257 -271 -398q174 -55 278 -177.5t104 -272.5q0 -199 -138 -326.5t-353 -127.5q-137 0 -250 42v-412h-197zM468 913h36q130 0 226 103.5t96 244.5q0 89 -54 142t-145 53q-233 0 -233 -371v-897l36 -15 q105 -50 211 -50q125 0 210.5 86.5t85.5 211.5q0 156 -117.5 250t-312.5 94h-39v148z" />
<glyph unicode="&#x3b3;" horiz-adv-x="1171" d="M486 106q-40 175 -183.5 467.5t-296.5 512.5h227q223 -338 366 -747q41 109 136.5 303t157.5 294l77 127l14 23h181q-236 -336 -486 -920l-18 -42q38 -105 38 -234q0 -127 -63 -285h-150l-11 33q-42 133 -42 213q0 85 53 255z" />
<glyph unicode="&#x3b4;" horiz-adv-x="1209" d="M490 977q-182 95 -262 178t-80 175q0 129 123.5 201.5t342.5 72.5q139 0 256 -29v-164q-128 45 -277 45q-112 0 -180 -30t-68 -79q0 -74 177 -178l94 -54l108 -66q198 -119 286 -249.5t88 -305.5q0 -227 -138.5 -373t-355.5 -146q-212 0 -352.5 142.5t-140.5 358.5 q0 354 379 501zM637 881q-316 -110 -316 -409q0 -149 83 -249t207 -100q119 0 198 104.5t79 260.5q0 134 -55 220t-196 173z" />
<glyph unicode="&#x3b5;" horiz-adv-x="1080" d="M956 189v-153q-165 -61 -319 -61q-241 0 -383.5 154.5t-142.5 415.5q0 270 142 418t403 148q139 0 288 -37v-161q-181 49 -305 49q-139 0 -223.5 -84t-96.5 -236h563v-149h-563q13 -192 97.5 -281t254.5 -89q135 0 285 66z" />
<glyph unicode="&#x3b6;" horiz-adv-x="1302" d="M666 -412v164q123 -23 199 -23q251 0 251 153q0 118 -139 118h-223q-281 0 -419 124t-138 377q0 170 80 365.5t208 336.5q-54 -4 -78 -4q-172 0 -364 70v175q228 -119 495 -119l69 1q304 258 588 278l47 -135q-100 -99 -255.5 -170.5t-320.5 -95.5 q-120 -164 -189.5 -349.5t-69.5 -341.5q0 -182 88 -260.5t292 -78.5h89q401 0 401 -275q0 -150 -125 -234t-349 -84q-48 0 -137 8z" />
<glyph unicode="&#x3b7;" horiz-adv-x="1274" d="M201 0v753q0 182 -66 333h220q27 -88 43 -206q175 230 382 230q159 0 234 -97.5t75 -303.5v-1104h-197v1080q0 240 -178 240q-174 0 -316 -216v-709h-197z" />
<glyph unicode="&#x3b8;" horiz-adv-x="1258" d="M136 776q0 405 126 616.5t367 211.5q240 0 367 -210t127 -604q0 -395 -127.5 -605t-366.5 -210q-240 0 -366.5 205.5t-126.5 595.5zM346 876h567q0 257 -79 418.5t-205 161.5q-125 0 -204 -161.5t-79 -418.5zM913 728h-567q0 -277 76.5 -441t205.5 -164q127 0 206 168 t79 437z" />
<glyph unicode="&#x3b9;" horiz-adv-x="753" d="M703 17q-92 -42 -194 -42q-153 0 -238 95q-74 83 -74 312v704h197v-685q0 -152 35.5 -215t121.5 -63q73 0 152 42v-148z" />
<glyph unicode="&#x3ba;" horiz-adv-x="1117" d="M197 0v1086h197v-532l102 126l95 118q141 176 222 232t192 56v-178q-22 3 -33 3q-52 0 -113 -51t-189 -204l-62 -73l447 -583h-238l-423 554v-554h-197z" />
<glyph unicode="&#x3bb;" horiz-adv-x="1217" d="M499 985l-100 230q-49 113 -102 152t-157 39h-29v173h37q193 0 275.5 -58t168.5 -256l356 -812q97 -220 201 -395l34 -58h-222q-102 169 -185 358l-185 418l-356 -776h-190z" />
<glyph unicode="&#x3bc;" horiz-adv-x="1294" d="M197 -296v1382h197v-553q0 -132 18.5 -193t71.5 -109q71 -65 164 -65q78 0 131 46t115 168v706h197v-751q0 -215 61 -335h-217q-21 58 -37 173q-1 10 -4 30q-86 -228 -259 -228q-130 0 -241 144v-415h-197z" />
<glyph unicode="&#x3bd;" horiz-adv-x="1124" d="M459 0q-77 245 -215 571t-244 515h208q42 -69 117 -236l90 -201q87 -194 160 -414l13 -40q271 495 271 737q0 91 -25 154h195q15 -51 15 -114q0 -157 -144 -472q-164 -359 -243 -500h-198z" />
<glyph unicode="&#x3be;" horiz-adv-x="1184" d="M538 -410v161q117 -22 207 -22q250 0 250 144q0 127 -225 127h-104q-269 0 -399 118t-130 285q0 138 96 253.5t263 180.5q-122 47 -197.5 141.5t-75.5 200.5q0 89 74 191q-142 0 -308 67v161q168 -80 426 -98l45 -4q181 108 374 108q68 0 142 -13l30 -95 q-174 -128 -441 -128l-76 2q-68 -79 -68 -174q0 -139 116.5 -223.5t307.5 -84.5h131v-148h-136q-150 0 -221.5 -17.5t-145.5 -72.5q-126 -95 -126 -239q0 -113 80.5 -175.5t227.5 -62.5h99q204 0 299.5 -67t95.5 -210q0 -145 -124 -230t-335 -85q-33 0 -90 4z" />
<glyph unicode="&#x3bf;" horiz-adv-x="1258" d="M629 -25q-239 0 -378.5 153t-139.5 415t139.5 414.5t378.5 152.5q240 0 379 -152.5t139 -414.5t-139.5 -415t-378.5 -153zM629 123q147 0 228 110t81 310t-81 309.5t-228 109.5t-227.5 -109.5t-80.5 -309.5t80.5 -310t227.5 -110z" />
<glyph unicode="&#x3c0;" horiz-adv-x="1598" d="M389 0v913h-42q-143 0 -273 -70v193q117 50 283 50h1167v-173h-259v-618q0 -168 76 -295h-208q-66 144 -66 303v610h-481v-913h-197z" />
<glyph unicode="&#x3c1;" horiz-adv-x="1271" d="M197 -395v812q0 385 151 549q133 144 346 144q207 0 324 -124t117 -344q0 -277 -157 -459.5t-396 -182.5q-90 0 -188 35v-430h-197zM394 226q94 -78 211 -78q143 0 238 131t95 329q0 159 -74 256.5t-195 97.5q-131 0 -203 -119t-72 -338v-279z" />
<glyph unicode="&#x3c2;" horiz-adv-x="1191" d="M536 -254q95 -18 187 -18q264 0 264 151q0 121 -240 121h-100q-153 0 -242.5 31t-167.5 110q-126 127 -126 327q0 275 202.5 458.5t506.5 183.5q119 0 210 -22v-153q-104 28 -217 28q-239 0 -369 -124.5t-130 -354.5q0 -164 86 -237.5t276 -73.5h70q395 0 395 -277 q0 -146 -122.5 -231t-333.5 -85q-73 0 -149 13v153z" />
<glyph unicode="&#x3c3;" horiz-adv-x="1379" d="M791 1086h650v-173h-401q107 -170 107 -369q0 -263 -139 -416t-379 -153q-239 0 -378.5 153t-139.5 415q0 260 139 413.5t376 153.5q66 0 165 -24zM629 123q147 0 228 110t81 310t-81 309.5t-228 109.5t-227.5 -109.5t-80.5 -309.5t80.5 -310t227.5 -110z" />
<glyph unicode="&#x3c4;" horiz-adv-x="1104" d="M515 0q-41 92 -54.5 176t-13.5 251v486h-157q-138 0 -250 -50v183q106 40 264 40h760v-173h-419v-596q0 -196 79 -317h-209z" />
<glyph unicode="&#x3c5;" horiz-adv-x="1246" d="M185 1086h197v-543q0 -261 58 -335q65 -85 186 -85q136 0 221 112.5t85 293.5q0 123 -44 282t-110 275h202q118 -267 118 -555q0 -247 -132.5 -401.5t-344.5 -154.5q-196 0 -323 123q-66 65 -89.5 148t-23.5 255v585z" />
<glyph unicode="&#x3c6;" horiz-adv-x="1579" d="M691 -395v427q-264 0 -422 139t-158 370t158 369t422 138v531h197v-531q264 0 422 -138t158 -369t-158 -370t-422 -139v-427h-197zM691 898q-188 -12 -285.5 -103.5t-97.5 -254.5q0 -159 106.5 -258.5t276.5 -99.5v716zM888 898v-716q170 0 276.5 99.5t106.5 258.5 q0 163 -97.5 254.5t-285.5 103.5z" />
<glyph unicode="&#x3c7;" horiz-adv-x="1123" d="M451 363l-201 359q-38 67 -44 78l-69 114q-66 109 -115 172h229q88 -121 189 -301l55 -99l70 -125l308 525h171l-396 -675l246 -443l66 -109l69 -113q35 -58 91 -141h-227l-14 21q-128 198 -181 293l-165 295l-353 -609h-173z" />
<glyph unicode="&#x3c8;" horiz-adv-x="1616" d="M716 -395v395l-23 2q-303 34 -427 179t-124 465v153q0 173 -49 287h199q54 -93 54 -274v-153q0 -184 30.5 -278t110.5 -153q107 -80 229 -80v1135h197v-1135q401 20 401 517q0 249 -79 421h197q79 -204 79 -457q0 -339 -220 -516q-122 -98 -378 -113v-395h-197z" />
<glyph unicode="&#x3c9;" horiz-adv-x="1838" d="M919 287q-126 -312 -362 -312q-196 0 -321 151t-125 389q0 139 47.5 298t122.5 273h205q-80 -115 -132.5 -271.5t-52.5 -280.5q0 -172 72.5 -285t182.5 -113q99 0 172.5 89t100.5 241q-47 123 -47 251q0 140 47 264h181q46 -124 46 -264q0 -128 -46 -251 q26 -152 99.5 -241t172.5 -89q110 0 183 113.5t73 284.5q0 124 -53 280.5t-133 271.5h205q75 -114 122.5 -273t47.5 -298q0 -238 -125 -389t-321 -151q-236 0 -362 312z" />
<glyph unicode="&#x3ca;" horiz-adv-x="753" d="M703 17q-92 -42 -194 -42q-153 0 -238 95q-74 83 -74 312v704h197v-685q0 -152 35.5 -215t121.5 -63q73 0 152 42v-148zM12 1283v173h173v-173h-173zM407 1283v173h173v-173h-173z" />
<glyph unicode="&#x3cb;" horiz-adv-x="1246" d="M185 1086h197v-543q0 -261 58 -335q65 -85 186 -85q136 0 221 112.5t85 293.5q0 123 -44 282t-110 275h202q118 -267 118 -555q0 -247 -132.5 -401.5t-344.5 -154.5q-196 0 -323 123q-66 65 -89.5 148t-23.5 255v585zM308 1283v173h173v-173h-173zM703 1283v173h173v-173 h-173z" />
<glyph unicode="&#x3cc;" horiz-adv-x="1258" d="M629 -25q-239 0 -378.5 153t-139.5 415t139.5 414.5t378.5 152.5q240 0 379 -152.5t139 -414.5t-139.5 -415t-378.5 -153zM629 123q147 0 228 110t81 310t-81 309.5t-228 109.5t-227.5 -109.5t-80.5 -309.5t80.5 -310t227.5 -110zM555 1283l-25 321h197l-24 -321h-148z " />
<glyph unicode="&#x3cd;" horiz-adv-x="1246" d="M185 1086h197v-543q0 -261 58 -335q65 -85 186 -85q136 0 221 112.5t85 293.5q0 123 -44 282t-110 275h202q118 -267 118 -555q0 -247 -132.5 -401.5t-344.5 -154.5q-196 0 -323 123q-66 65 -89.5 148t-23.5 255v585zM537 1283l-25 321h197l-24 -321h-148z" />
<glyph unicode="&#x3ce;" horiz-adv-x="1838" d="M919 287q-126 -312 -362 -312q-196 0 -321 151t-125 389q0 139 47.5 298t122.5 273h205q-80 -115 -132.5 -271.5t-52.5 -280.5q0 -172 72.5 -285t182.5 -113q99 0 172.5 89t100.5 241q-47 123 -47 251q0 140 47 264h181q46 -124 46 -264q0 -128 -46 -251 q26 -152 99.5 -241t172.5 -89q110 0 183 113.5t73 284.5q0 124 -53 280.5t-133 271.5h205q75 -114 122.5 -273t47.5 -298q0 -238 -125 -389t-321 -151q-236 0 -362 312zM845 1283l-25 321h197l-24 -321h-148z" />
<glyph unicode="&#x3d0;" horiz-adv-x="1061" d="M365 1153q101 -67 195 -67q89 0 150 65t61 159q0 63 -40.5 104.5t-101.5 41.5q-78 0 -150 -82.5t-114 -220.5zM337 1018q-37 -139 -37 -304q0 -83 14 -154q154 149 322 149q147 0 246 -96.5t99 -240.5q0 -163 -123 -280t-294 -117q-207 0 -330 202.5t-123 542.5 q0 376 157.5 630t390.5 254q133 0 215 -80.5t82 -209.5q0 -153 -115 -264.5t-273 -111.5q-123 0 -231 80zM337 411q27 -129 100.5 -208.5t165.5 -79.5q75 0 131 69t56 161q0 88 -56 148.5t-137 60.5q-155 0 -260 -151z" />
<glyph unicode="&#x3d1;" horiz-adv-x="1277" d="M129 444h181q19 -42 36 -98l19 -66q45 -157 165 -157t193 155t73 409v41h-210q-258 0 -348 77q-127 109 -127 295q0 200 133 352t308 152q391 0 457 -703h206v-173h-206q0 -328 -136 -540.5t-345 -212.5q-236 0 -318 241l-29 90l-15 48q-15 46 -37 90zM796 901v29 q0 235 -71.5 380.5t-186.5 145.5q-100 0 -177 -105.5t-77 -243.5q0 -91 53 -147q35 -36 90.5 -47.5t191.5 -11.5h177z" />
<glyph unicode="&#x3d2;" horiz-adv-x="1303" d="M534 0v479q0 268 -111 493q-157 318 -419 508h285q102 -85 203 -238.5t163 -317.5q54 209 160 350q86 114 187.5 160t268.5 46h24v-148h-24l-85 1q-105 6 -210.5 -104t-167.5 -292q-76 -223 -76 -461v-476h-198z" />
<glyph unicode="&#x3d3;" horiz-adv-x="1677" d="M887 0v479q0 268 -111 493q-157 318 -419 508h285q102 -85 203 -238.5t163 -317.5q54 209 160 350q86 114 187.5 160t268.5 46h24v-148h-24l-85 1q-105 6 -210.5 -104t-167.5 -292q-76 -223 -76 -461v-476h-198zM37 1160l-25 321h197l-24 -321h-148z" />
<glyph unicode="&#x3d4;" horiz-adv-x="1303" d="M534 0v479q0 268 -111 493q-157 318 -419 508h285q102 -85 203 -238.5t163 -317.5q54 209 160 350q86 114 187.5 160t268.5 46h24v-148h-24l-85 1q-105 6 -210.5 -104t-167.5 -292q-76 -223 -76 -461v-476h-198zM372 1604v173h173v-173h-173zM767 1604v173h173v-173h-173 z" />
<glyph unicode="&#x3d5;" horiz-adv-x="1740" d="M771 -395v395l-32 5q-189 28 -299 78.5t-193 146.5q-148 173 -148 403q0 202 123 339.5t303 137.5q259 0 345 -277q85 277 345 277q180 0 303 -137.5t123 -339.5q0 -230 -148 -403q-83 -96 -193 -146.5t-299 -78.5l-32 -5v-395h-198zM771 149v387q0 420 -240 420 q-102 0 -168.5 -94t-66.5 -238q0 -105 45 -207t117 -162q108 -91 313 -106zM969 149q205 15 313 106q73 60 117.5 162t44.5 207q0 144 -66.5 238t-168.5 94q-240 0 -240 -420v-387z" />
<glyph unicode="&#x3d6;" horiz-adv-x="1813" d="M917 202q-134 -227 -323 -227q-175 0 -292 152t-117 377q0 224 97 434h-34q-115 0 -230 -46v156q117 38 291 38h1430v-148h-188q96 -210 96 -441q0 -224 -116.5 -373t-292.5 -149q-196 0 -321 227zM482 938q-100 -212 -100 -411q0 -167 66.5 -273t171.5 -106 q63 0 126 55.5t103 147.5q-54 113 -54 219q0 103 48 220h145q48 -113 48 -213q0 -102 -49 -226q92 -197 235 -197q95 0 161 104t66 254q0 197 -98 426h-869z" />
<glyph unicode="&#x3da;" horiz-adv-x="1376" d="M697 -417v152q97 -7 163 -7q318 0 318 154q0 67 -62 92.5t-221 25.5h-93q-205 0 -299 20.5t-186 84.5q-206 145 -206 479q0 401 250.5 667.5t627.5 266.5q153 0 300 -38v-161q-172 51 -309 51q-287 0 -476.5 -215.5t-189.5 -542.5q0 -230 133 -340q66 -55 137 -71 t249 -16h91q222 0 324.5 -68.5t102.5 -216.5q0 -320 -514 -320l-43 1l-64 1z" />
<glyph unicode="&#x3dc;" horiz-adv-x="1098" d="M191 0v1480h827v-157h-617v-496h518v-155h-518v-672h-210z" />
<glyph unicode="&#x3de;" horiz-adv-x="1092" d="M601 0l234 648h-736l307 832h159l-238 -641h741l-308 -839h-159z" />
<glyph unicode="&#x3e0;" horiz-adv-x="1283" d="M1126 -38l-150 50q54 160 54 322q0 142 -47 303l-550 -376l-95 130l583 400q-72 133 -167 244l-588 -407l-92 128l559 390q-291 219 -633 219v157q493 0 838.5 -349.5t345.5 -846.5q0 -175 -58 -364z" />
<glyph unicode="&#x3ee;" horiz-adv-x="1295" d="M543 0v1049h-518v157h518v274h210v-274h518v-157h-518v-1049h-210z" />
<glyph unicode="&#x3ef;" horiz-adv-x="1123" d="M463 938h-395v148h395v493h197v-493h395v-148h-395v-1333h-197v1333z" />
<glyph unicode="&#x3f0;" horiz-adv-x="1117" d="M194 -25l-108 67q52 223 216 380q6 62 6 122q0 211 -38 290t-140 79q-19 0 -44 -6v180q77 23 124 23q129 0 186 -117t57 -381v-53q97 100 210 166q43 276 267 385l100 -73q-60 -219 -225 -376q-3 -40 -3 -93v-127q0 -268 170 -268q15 0 41 2l17 2v-176q-56 -26 -125 -26 q-251 0 -251 492l1 56q-92 -76 -202 -188q-32 -226 -259 -360z" />
<glyph unicode="&#x3f1;" horiz-adv-x="1234" d="M1098 -222v-173h-309q-347 0 -488 178.5t-141 617.5q0 223 30.5 346t108.5 211q135 153 357 153q202 0 322 -123.5t120 -329.5q0 -253 -160 -424.5t-396 -171.5q-113 0 -211 45q9 -172 106.5 -250.5t303.5 -78.5h357zM357 275q99 -65 207 -65q138 0 231 117t93 291 q0 157 -71.5 250.5t-191.5 93.5q-123 0 -195.5 -112.5t-72.5 -304.5v-270z" />
<glyph unicode="&#x3f2;" horiz-adv-x="1049" d="M951 33q-191 -58 -330 -58q-220 0 -365 163t-145 411q0 265 143.5 413t400.5 148q127 0 284 -35v-165q-167 49 -273 49q-155 0 -250 -114t-95 -302q0 -182 97.5 -295.5t253.5 -113.5q136 0 279 69v-170z" />
<glyph unicode="&#x401;" horiz-adv-x="1110" d="M191 0v1480h827v-157h-617v-475h517v-155h-517v-536h660v-157h-870zM342 1604v173h173v-173h-173zM737 1604v173h173v-173h-173z" />
<glyph unicode="&#x402;" d="M740 824q175 132 364 132q194 0 322 -130t128 -328q0 -218 -134.5 -364t-335.5 -146q-60 0 -110 12v150q30 -8 69 -8q121 0 205 97t84 237q0 130 -77.5 215.5t-196.5 85.5q-157 0 -318 -143v-634h-210v1323h-518v157h1246v-157h-518v-499z" />
<glyph unicode="&#x403;" horiz-adv-x="1043" d="M191 0v1480h828v-157h-618v-1323h-210zM401 1604l241 321h228l-321 -321h-148z" />
<glyph unicode="&#x404;" horiz-adv-x="1234" d="M1148 20q-175 -57 -349 -57q-326 0 -510 207.5t-184 574.5q0 352 188 562t502 210q161 0 334 -57v-168q-195 71 -336 71q-189 0 -313.5 -137t-150.5 -375h559v-154h-559q0 -240 137.5 -404t339.5 -164q169 0 342 85v-194z" />
<glyph unicode="&#x405;" horiz-adv-x="1103" d="M100 28v208q250 -116 412 -116q123 0 198.5 65.5t75.5 170.5q0 87 -49.5 148t-182.5 136l-102 59q-189 108 -266.5 203.5t-77.5 221.5q0 172 124 282.5t316 110.5q171 0 361 -57v-192q-234 92 -349 92q-109 0 -180 -58t-71 -146q0 -74 52 -131t190 -136l106 -60 q192 -109 268 -206t76 -233q0 -193 -142 -310t-377 -117q-150 0 -382 65z" />
<glyph unicode="&#x406;" horiz-adv-x="590" d="M190 0v1480h210v-1480h-210z" />
<glyph unicode="&#x407;" horiz-adv-x="590" d="M190 0v1480h210v-1480h-210zM11 1604v173h173v-173h-173zM406 1604v173h173v-173h-173z" />
<glyph unicode="&#x408;" horiz-adv-x="637" d="M-183 -275v186q120 -39 214 -39q118 0 165.5 69t47.5 239v1300h210v-1293q0 -483 -457 -483q-70 0 -180 21z" />
<glyph unicode="&#x409;" horiz-adv-x="2011" d="M1246 154h75q216 0 300 62q106 78 106 221q0 134 -89.5 194t-288.5 60h-103v-537zM31 0v185q215 30 282 229q70 207 70 972v94h863v-635h114q175 0 255 -14.5t153 -60.5q169 -107 169 -320q0 -246 -193 -367q-131 -83 -439 -83h-269v1326h-444v-33q0 -674 -76 -916 q-58 -184 -169 -270.5t-316 -106.5z" />
<glyph unicode="&#x40a;" horiz-adv-x="1981" d="M191 0v1480h210v-624h605v624h210v-635h113q176 0 256 -14.5t152 -60.5q170 -108 170 -319q0 -247 -193 -368q-132 -83 -439 -83h-269v699h-605v-699h-210zM1216 154h75q216 0 300 62q106 78 106 221q0 134 -89.5 194t-288.5 60h-103v-537z" />
<glyph unicode="&#x40b;" horiz-adv-x="1561" d="M1117 1480v-157h-444v-488q164 140 383 140q198 0 317 -120q63 -63 85.5 -140t22.5 -225v-490h-210v485q0 172 -59 244.5t-200 72.5q-192 0 -339 -154v-648h-210v1323h-444v157h1098z" />
<glyph unicode="&#x40c;" horiz-adv-x="1214" d="M401 685v-685h-210v1480h210v-639h10q83 0 125 40.5t146 217.5l63 108l52 92q59 101 119 141.5t150 40.5l26 -1v-154q-11 1 -16 1q-78 0 -162 -151l-39 -71l-31 -54q-76 -136 -117 -187t-104 -90q108 -36 168.5 -103.5t150.5 -251.5l51 -103q9 -19 56 -117 q53 -113 103 -199h-222l-16 31l-65 131l-84 172q-129 262 -262 351h-102zM475 1604l241 321h228l-321 -321h-148z" />
<glyph unicode="&#x40e;" horiz-adv-x="1314" d="M584 470l-510 1010h235l397 -786l430 786h196l-608 -1112q-122 -225 -229 -296.5t-319 -71.5h-39v173h41q148 0 221.5 46.5t152.5 190.5zM363 1900h123q32 -148 210 -148t210 148h123q-15 -134 -106 -215t-227 -81t-226.5 80.5t-106.5 215.5z" />
<glyph unicode="&#x40f;" horiz-adv-x="1506" d="M191 0v1480h210v-1323h704v1323h210v-1480h-464v-321h-197v321h-463z" />
<glyph unicode="&#x410;" horiz-adv-x="1413" d="M17 0l587 1480h208l578 -1480h-227l-161 410h-627l-163 -410h-195zM436 566h505l-252 638z" />
<glyph unicode="&#x411;" horiz-adv-x="1191" d="M191 0v1480h827v-157h-617v-478h113q176 0 256 -14.5t152 -60.5q170 -108 170 -319q0 -247 -193 -368q-132 -83 -439 -83h-269zM401 154h74q216 0 301 62q106 78 106 221q0 134 -89.5 194t-288.5 60h-103v-537z" />
<glyph unicode="&#x412;" horiz-adv-x="1178" d="M191 0v1480h384q222 0 340.5 -84t118.5 -242q0 -128 -79 -228t-225 -155q363 -111 363 -401q0 -130 -80 -231q-61 -77 -147 -108t-239 -31h-436zM399 157h43q231 0 299 29q130 55 130 204q0 132 -118 219.5t-295 87.5h-59v-540zM399 830h67q169 0 261 72t92 205 q0 216 -338 216h-82v-493z" />
<glyph unicode="&#x413;" horiz-adv-x="1043" d="M191 0v1480h828v-157h-618v-1323h-210z" />
<glyph unicode="&#x414;" horiz-adv-x="1561" d="M74 -321v506h117q165 264 230.5 521.5t65.5 636.5v137h808v-1295h204v-506h-204v321h-1017v-321h-204zM1086 185v1141h-389v-24q0 -655 -265 -1117h654z" />
<glyph unicode="&#x415;" horiz-adv-x="1110" d="M191 0v1480h827v-157h-617v-475h517v-155h-517v-536h660v-157h-870z" />
<glyph unicode="&#x416;" horiz-adv-x="1673" d="M936 697v-697h-198v697h-86q-92 -46 -144 -141q-71 -130 -178 -408q-42 -111 -58 -148h-216l22 50q60 135 109 255l47 112q74 180 136 254t167 107q-55 32 -90 80.5t-101 184.5l-37 78q-63 129 -99 167t-95 38v154l21 1q103 0 172.5 -63.5t154.5 -234.5l31 -64l40 -81 q60 -120 97.5 -156.5t106.5 -39.5v638h198v-638q70 8 110 46t94 150q27 54 40 81l31 64q85 171 154.5 234.5t172.5 63.5l21 -1v-154q-59 0 -95 -38t-99 -167l-37 -78q-66 -136 -101 -184.5t-90 -80.5q105 -33 167 -107t136 -254l46 -112q50 -120 110 -255l22 -50h-216 q-17 39 -59 148q-103 272 -177 408q-35 64 -63.5 89.5t-92.5 51.5h-74z" />
<glyph unicode="&#x417;" horiz-adv-x="1107" d="M65 25v185q233 -86 402 -86q152 0 242.5 75.5t90.5 202.5q0 152 -119 231.5t-348 79.5h-31v148h29q205 0 318 74.5t113 210.5q0 216 -305 216q-159 0 -367 -77v170q191 62 379 62q243 0 376 -92.5t133 -262.5q0 -263 -322 -358q173 -28 269.5 -129.5t96.5 -253.5 q0 -195 -158 -326.5t-393 -131.5q-210 0 -406 62z" />
<glyph unicode="&#x418;" horiz-adv-x="1517" d="M191 0v1480h210v-1178l715 1178h210v-1480h-210v1178l-715 -1178h-210z" />
<glyph unicode="&#x419;" horiz-adv-x="1518" d="M191 0v1480h210v-1178l715 1178h210v-1480h-210v1178l-715 -1178h-210zM414 1900h123q32 -148 210 -148t210 148h123q-15 -134 -106 -215t-227 -81t-226.5 80.5t-106.5 215.5z" />
<glyph unicode="&#x41a;" horiz-adv-x="1214" d="M401 685v-685h-210v1480h210v-639h10q83 0 125 40.5t146 217.5l63 108l52 92q59 101 119 141.5t150 40.5l26 -1v-154q-11 1 -16 1q-78 0 -162 -151l-39 -71l-31 -54q-76 -136 -117 -187t-104 -90q108 -36 168.5 -103.5t150.5 -251.5l51 -103q9 -19 56 -117 q53 -113 103 -199h-222l-16 31l-65 131l-84 172q-129 262 -262 351h-102z" />
<glyph unicode="&#x41b;" horiz-adv-x="1437" d="M31 0v185q215 30 282 229q70 207 70 972v94h863v-1480h-210v1326h-444v-33q0 -674 -76 -916q-58 -184 -169 -270.5t-316 -106.5z" />
<glyph unicode="&#x41c;" horiz-adv-x="1764" d="M191 0v1480h289l412 -1145l422 1145h260v-1480h-196l-2 1204l-408 -1105h-199l-398 1108v-1207h-180z" />
<glyph unicode="&#x41d;" horiz-adv-x="1505" d="M191 0v1480h210v-624h704v624h210v-1480h-210v699h-704v-699h-210z" />
<glyph unicode="&#x41e;" horiz-adv-x="1591" d="M796 -37q-315 0 -503.5 211.5t-188.5 565.5t188.5 565.5t503.5 211.5t503.5 -211.5t188.5 -565.5t-188.5 -565.5t-503.5 -211.5zM796 120q221 0 345 164.5t124 457.5q0 291 -124 454.5t-345 163.5t-345 -163.5t-124 -454.5q0 -293 124 -457.5t345 -164.5z" />
<glyph unicode="&#x41f;" horiz-adv-x="1505" d="M191 0v1480h1124v-1480h-210v1323h-704v-1323h-210z" />
<glyph unicode="&#x420;" horiz-adv-x="1132" d="M191 0v1480h403q174 0 268.5 -28.5t154.5 -100.5q79 -95 79 -259q0 -236 -160 -370t-444 -134h-93v-588h-208zM399 747h85q187 0 289 86t102 244q0 132 -80.5 189t-266.5 57h-129v-576z" />
<glyph unicode="&#x421;" horiz-adv-x="1417" d="M1303 76q-219 -113 -478 -113q-345 0 -533 202t-188 574q0 371 191.5 574.5t540.5 203.5q198 0 465 -65v-197q-304 105 -469 105q-241 0 -373 -163t-132 -460q0 -284 141 -447t386 -163q209 0 449 129v-180z" />
<glyph unicode="&#x422;" horiz-adv-x="1295" d="M543 0v1323h-525v157h1260v-157h-525v-1323h-210z" />
<glyph unicode="&#x423;" horiz-adv-x="1314" d="M584 470l-510 1010h235l397 -786l430 786h196l-608 -1112q-122 -225 -229 -296.5t-319 -71.5h-39v173h41q148 0 221.5 46.5t152.5 190.5z" />
<glyph unicode="&#x424;" horiz-adv-x="1419" d="M611 0v222h-19q-215 0 -372.5 152.5t-157.5 360.5q0 222 157.5 372t391.5 150v223h197v-223q234 0 391.5 -150t157.5 -372q0 -209 -157.5 -361t-374.5 -152h-17v-222h-197zM611 1104q-162 -11 -250.5 -108.5t-88.5 -265.5q0 -155 95 -254.5t244 -99.5v728zM808 1104v-728 q149 0 244.5 99.5t95.5 254.5q0 168 -88.5 265.5t-251.5 108.5z" />
<glyph unicode="&#x425;" horiz-adv-x="1282" d="M16 0l491 743l-467 737h248l356 -558l374 558h198l-473 -715l485 -765h-248l-376 587l-389 -587h-199z" />
<glyph unicode="&#x426;" horiz-adv-x="1574" d="M191 0v1480h210v-1295h704v1295h210v-1295h197v-506h-197v321h-1124z" />
<glyph unicode="&#x427;" horiz-adv-x="1289" d="M888 0v596q-161 -90 -371 -90q-212 0 -330 120q-62 63 -84.5 140t-22.5 224v490h210v-484q0 -178 61.5 -248t219.5 -70q174 0 317 89v713h210v-1480h-210z" />
<glyph unicode="&#x428;" horiz-adv-x="1949" d="M191 0v1480h210v-1295h469v1295h209v-1295h469v1295h210v-1480h-1567z" />
<glyph unicode="&#x429;" horiz-adv-x="2017" d="M191 0v1480h210v-1295h469v1295h209v-1295h469v1295h210v-1295h197v-506h-197v321h-1567z" />
<glyph unicode="&#x42a;" horiz-adv-x="1388" d="M414 0v1323h-395v157h605v-635h113q176 0 255.5 -14.5t152.5 -60.5q169 -107 169 -320q0 -246 -193 -367q-131 -83 -438 -83h-269zM624 154h74q216 0 301 62q106 78 106 221q0 134 -89.5 194t-289.5 60h-102v-537z" />
<glyph unicode="&#x42b;" horiz-adv-x="1647" d="M191 0v1480h210v-635h113q176 0 256 -14.5t152 -60.5q170 -108 170 -319q0 -247 -193 -368q-132 -83 -439 -83h-269zM401 154h74q216 0 301 62q106 78 106 221q0 134 -89.5 194t-288.5 60h-103v-537zM1246 0v1480h210v-1480h-210z" />
<glyph unicode="&#x42c;" horiz-adv-x="1166" d="M191 0v1480h210v-635h113q176 0 256 -14.5t152 -60.5q170 -108 170 -319q0 -247 -193 -368q-132 -83 -439 -83h-269zM401 154h74q216 0 301 62q106 78 106 221q0 134 -89.5 194t-288.5 60h-103v-537z" />
<glyph unicode="&#x42d;" horiz-adv-x="1234" d="M86 20v193q195 -77 344 -77q209 0 333.5 147t141.5 414h-560v154h560q0 227 -127.5 369.5t-330.5 142.5q-164 0 -342 -89v167q162 76 363 76q307 0 466 -171q89 -95 142 -251.5t53 -325.5q0 -384 -225 -621q-175 -185 -473 -185q-152 0 -345 57z" />
<glyph unicode="&#x42e;" horiz-adv-x="1977" d="M191 0v1480h210v-661h234q23 333 183.5 515.5t430.5 182.5q286 0 451.5 -208.5t165.5 -568.5t-165.5 -568.5t-451.5 -208.5q-269 0 -432.5 186.5t-181.5 512.5h-234v-662h-210zM1249 117q186 0 290.5 165.5t104.5 457.5t-104.5 457.5t-290.5 165.5q-185 0 -289.5 -165.5 t-104.5 -457.5t104.5 -457.5t289.5 -165.5z" />
<glyph unicode="&#x42f;" horiz-adv-x="1270" d="M869 629h-134q-141 -141 -339 -467q-27 -45 -73 -120l-26 -42h-272q85 99 165 225l43 67l27 41l59 90q115 175 228 245q-155 31 -252.5 143t-97.5 259q0 193 143 317q62 54 148 73.5t255 19.5h336v-1480h-210v629zM869 1326h-124q-165 0 -236 -60q-90 -77 -90 -201 q0 -140 95.5 -211t283.5 -71h71v543z" />
<glyph unicode="&#x430;" horiz-adv-x="1131" d="M757 138q-177 -163 -341 -163q-135 0 -224 84.5t-89 213.5q0 178 149.5 273.5t429.5 95.5h46v131q0 189 -197 189q-153 0 -334 -96v163q199 81 375 81q181 0 267 -82.5t86 -254.5v-492q0 -169 104 -169q13 0 38 4l14 -109q-67 -32 -148 -32q-138 0 -176 163zM728 245v281 l-63 2q-164 0 -264.5 -61t-100.5 -162q0 -71 50 -120t122 -49q123 0 256 109z" />
<glyph unicode="&#x431;" horiz-adv-x="1221" d="M308 847q152 239 397 239q186 0 299.5 -146.5t113.5 -387.5q0 -259 -140 -418t-368 -159q-499 0 -499 730q0 459 138.5 666.5t444.5 207.5h42q147 0 264 53v-159q-93 -42 -241 -42h-24q-218 0 -310.5 -126.5t-116.5 -457.5zM310 710l-1 -34q0 -553 312 -553 q132 0 209.5 113t77.5 304q0 367 -257 367q-181 0 -341 -197z" />
<glyph unicode="&#x432;" horiz-adv-x="1075" d="M197 0v1086h378q165 0 254.5 -61.5t89.5 -174.5q0 -199 -208 -283q252 -81 252 -293q0 -129 -93 -201.5t-256 -72.5h-417zM393 148h82q167 0 224 29.5t57 114.5q0 91 -74.5 147.5t-195.5 56.5h-93v-348zM393 626h99q225 0 225 183q0 129 -213 129h-111v-312z" />
<glyph unicode="&#x433;" horiz-adv-x="1012" d="M197 0v1086h790v-173h-593v-913h-197z" />
<glyph unicode="&#x434;" horiz-adv-x="1376" d="M74 -247v420h101q115 145 164.5 337t49.5 490v86h703v-913h197v-420h-197v247h-821v-247h-197zM894 173v765h-308v-24q0 -233 -42 -408.5t-135 -332.5h485z" />
<glyph unicode="&#x435;" horiz-adv-x="1141" d="M993 35q-198 -60 -339 -60q-241 0 -392 159.5t-151 413.5q0 247 133.5 405t341.5 158q197 0 304.5 -140.5t107.5 -398.5l-1 -60h-685q43 -387 379 -387q123 0 302 66v-156zM321 660h479q0 303 -226 303q-227 0 -253 -303z" />
<glyph unicode="&#x436;" horiz-adv-x="1490" d="M844 481v-481h-198v481h-91q-47 -29 -96 -123q-3 -6 -74 -126q-25 -43 -64 -117l-45 -88l-15 -27h-212q45 72 82 144q38 76 44 87l53 98l40 76q59 107 171 145q-79 46 -140 175l-20 42q-7 15 -23 53q-28 67 -50 89t-66 29v148h11q87 0 138 -47t111 -181l23 -53 q49 -109 85 -148t88 -39l50 -1v469h198v-469l50 1q52 0 87.5 38.5t84.5 148.5l24 53q61 135 111 181.5t138 46.5h10v-148q-44 -7 -65.5 -29t-49.5 -89q-16 -38 -23 -53l-20 -42q-61 -129 -141 -175q113 -38 172 -145l39 -76l54 -98q6 -11 44 -87q37 -72 82 -144h-213l-14 27 l-46 88q-38 74 -63 117q-71 120 -74 126q-49 94 -96 123h-91z" />
<glyph unicode="&#x437;" horiz-adv-x="984" d="M86 22v166q156 -60 321 -60q115 0 186.5 52.5t71.5 136.5q0 198 -316 198h-26v130h33q281 0 281 158q0 157 -252 157q-126 0 -280 -55v159q143 46 315 46q197 0 307.5 -70t110.5 -195q0 -157 -199 -263q233 -71 233 -266q0 -147 -134.5 -244t-337.5 -97q-132 0 -314 47z " />
<glyph unicode="&#x438;" horiz-adv-x="1283" d="M197 0v1086h185v-822l506 822h197v-1086h-185v822l-505 -822h-198z" />
<glyph unicode="&#x439;" horiz-adv-x="1283" d="M197 0v1086h185v-822l506 822h197v-1086h-185v822l-505 -822h-198zM347 1579h123q32 -148 210 -148t210 148h123q-15 -134 -106 -215t-227 -81t-226.5 80.5t-106.5 215.5z" />
<glyph unicode="&#x43a;" horiz-adv-x="1100" d="M394 463v-463h-197v1086h197v-475l18 1q72 4 104 27t69 94l34 66l22 46q73 152 129.5 196.5t179.5 44.5v-148q-59 0 -88 -27.5t-77 -127.5l-19 -40l-25 -55q-44 -91 -143 -142q81 -28 124 -74t114 -182l40 -76q67 -128 125 -214h-218q-31 61 -63 119l-54 95 q-104 187 -173 249h-99z" />
<glyph unicode="&#x43b;" horiz-adv-x="1203" d="M37 0v173q76 4 119.5 49t75.5 153q70 233 70 604v107h703v-1086h-197v938h-315v-19q0 -453 -110 -689q-108 -230 -346 -230z" />
<glyph unicode="&#x43c;" horiz-adv-x="1487" d="M197 0v1086h215l328 -849l320 849h229v-1086h-201l1 825l-282 -751h-190l-266 680v-754h-154z" />
<glyph unicode="&#x43d;" horiz-adv-x="1283" d="M197 0v1086h197v-441h494v441h197v-1086h-197v497h-494v-497h-197z" />
<glyph unicode="&#x43e;" horiz-adv-x="1258" d="M629 -25q-239 0 -378.5 153t-139.5 415t139.5 414.5t378.5 152.5t378.5 -152.5t139.5 -414.5t-139.5 -415t-378.5 -153zM629 123q147 0 228 110t81 310t-81 309.5t-228 109.5t-227.5 -109.5t-80.5 -309.5t80.5 -310t227.5 -110z" />
<glyph unicode="&#x43f;" horiz-adv-x="1283" d="M197 0v1086h888v-1086h-197v913h-494v-913h-197z" />
<glyph unicode="&#x440;" horiz-adv-x="1289" d="M197 -395v1481h197v-204q121 228 363 228q196 0 308.5 -143t112.5 -391q0 -270 -127.5 -435.5t-335.5 -165.5q-193 0 -321 148v-518h-197zM394 259q152 -136 290 -136q136 0 210 113.5t74 319.5q0 382 -252 382q-165 0 -322 -179v-500z" />
<glyph unicode="&#x441;" horiz-adv-x="1049" d="M951 33q-191 -58 -330 -58q-220 0 -365 163t-145 411q0 265 143.5 413t400.5 148q127 0 284 -35v-165q-167 49 -272 49q-152 0 -243 -113.5t-91 -302.5q0 -183 94 -296t246 -113q135 0 278 69v-170z" />
<glyph unicode="&#x442;" horiz-adv-x="1012" d="M407 0v913h-395v173h987v-173h-395v-913h-197z" />
<glyph unicode="&#x443;" horiz-adv-x="1077" d="M458 67l-446 1019h190l347 -787l311 787h198l-417 -1061q-107 -271 -202 -345.5t-335 -74.5h-23v173h28q151 0 210.5 45.5t126.5 211.5z" />
<glyph unicode="&#x444;" horiz-adv-x="1653" d="M728 -395v469q-94 -99 -215 -99q-167 0 -278.5 160.5t-111.5 399.5q0 245 111.5 410.5t277.5 165.5q143 0 216 -99v468h197v-468q73 99 215 99q166 0 277.5 -165.5t111.5 -410.5q0 -239 -111.5 -399.5t-277.5 -160.5q-122 0 -215 99v-469h-197zM728 902q-82 48 -155 48 q-113 0 -183 -114t-70 -297q0 -181 71 -292t186 -111q65 0 151 46v720zM925 902v-720q86 -46 151 -46q115 0 185.5 111t70.5 292q0 183 -70 297t-182 114q-74 0 -155 -48z" />
<glyph unicode="&#x445;" horiz-adv-x="1256" d="M88 0l413 561l-401 525h234l317 -418l287 418h192l-376 -551l409 -535h-234l-327 430l-316 -430h-198z" />
<glyph unicode="&#x446;" horiz-adv-x="1369" d="M197 0v1086h197v-913h494v913h197v-913h198v-420h-198v247h-888z" />
<glyph unicode="&#x447;" horiz-adv-x="1073" d="M678 0v425q-117 -49 -236 -49q-204 0 -283 101.5t-79 362.5v246h197v-284q0 -163 43 -222.5t160 -59.5q110 0 198 50v516h198v-1086h-198z" />
<glyph unicode="&#x448;" horiz-adv-x="1727" d="M197 0v1086h197v-913h371v913h197v-913h370v913h197v-1086h-1332z" />
<glyph unicode="&#x449;" horiz-adv-x="1814" d="M197 0v1086h197v-913h371v913h197v-913h370v913h197v-913h198v-420h-198v247h-1332z" />
<glyph unicode="&#x44a;" horiz-adv-x="1148" d="M315 0v938h-296v148h493v-438h95q449 0 449 -316q0 -332 -478 -332h-263zM512 148h79q255 0 255 183q0 92 -57.5 130.5t-194.5 38.5h-82v-352z" />
<glyph unicode="&#x44b;" horiz-adv-x="1481" d="M197 0v1086h197v-438h95q449 0 449 -316q0 -332 -478 -332h-263zM1085 0v1086h198v-1086h-198zM394 148h79q255 0 255 183q0 92 -57.5 130.5t-194.5 38.5h-82v-352z" />
<glyph unicode="&#x44c;" horiz-adv-x="1037" d="M204 0v1086h197v-438h95q449 0 449 -316q0 -332 -478 -332h-263zM401 148h79q255 0 255 183q0 92 -57.5 130.5t-194.5 38.5h-82v-352z" />
<glyph unicode="&#x44d;" horiz-adv-x="1042" d="M86 28v177q143 -69 312 -69q274 0 328 345h-381v148h381q0 155 -84.5 244t-231.5 89q-128 0 -287 -76v168q146 57 312 57q235 0 365.5 -144t130.5 -403q0 -267 -147 -428t-390 -161q-148 0 -308 53z" />
<glyph unicode="&#x44e;" horiz-adv-x="1667" d="M803 543q0 -202 70.5 -311t200.5 -109q131 0 201.5 109.5t70.5 310.5t-70.5 310t-201.5 109q-130 0 -200.5 -109t-70.5 -310zM597 469h-203v-469h-197v1086h197v-469h203q19 230 146.5 361.5t330.5 131.5q220 0 351 -154t131 -413q0 -260 -131 -414t-351 -154 q-204 0 -330 130.5t-147 363.5z" />
<glyph unicode="&#x44f;" horiz-adv-x="1045" d="M650 438h-112q-70 -69 -146 -200l-63 -110q-41 -73 -71 -128h-221q70 106 126 212l26 49q94 179 184 231q-102 37 -162.5 117t-60.5 178q0 177 167 257q85 42 313 42h218v-1086h-198v438zM650 938h-55q-235 0 -235 -172q0 -180 246 -180h44v352z" />
<glyph unicode="&#x451;" horiz-adv-x="1141" d="M993 35q-198 -60 -339 -60q-241 0 -392 159.5t-151 413.5q0 247 133.5 405t341.5 158q197 0 304.5 -140.5t107.5 -398.5l-1 -60h-685q43 -387 379 -387q123 0 302 66v-156zM321 660h479q0 303 -226 303q-227 0 -253 -303zM308 1283v173h173v-173h-173zM703 1283v173h173 v-173h-173z" />
<glyph unicode="&#x452;" horiz-adv-x="1271" d="M197 0v1135h-197v124h197v320h197v-320h374v-124h-374v-425q156 228 382 228q142 0 225.5 -89.5t83.5 -241.5v-699q0 -154 -84.5 -241t-236.5 -87q-73 0 -148 21v154q63 -27 126 -27q79 0 112.5 50t33.5 167v598q0 122 -35.5 173.5t-117.5 51.5q-181 0 -341 -237v-531 h-197z" />
<glyph unicode="&#x453;" horiz-adv-x="1012" d="M197 0v1086h790v-173h-593v-913h-197zM394 1283l241 321h228l-321 -321h-148z" />
<glyph unicode="&#x454;" horiz-adv-x="1042" d="M956 189v-153q-165 -61 -319 -61q-241 0 -383.5 154.5t-142.5 415.5q0 270 142 418t403 148q139 0 288 -37v-161q-181 49 -305 49q-139 0 -223.5 -84t-96.5 -236h378v-149h-378q13 -192 97.5 -281t254.5 -89q135 0 285 66z" />
<glyph unicode="&#x455;" horiz-adv-x="1044" d="M157 38v181q193 -96 336 -96q85 0 141 46t56 115q0 101 -157 167l-115 49q-255 106 -255 305q0 142 100.5 223.5t275.5 81.5q91 0 225 -25l41 -8v-164q-165 49 -263 49q-86 0 -137.5 -37.5t-51.5 -100.5q0 -89 144 -150l95 -40q161 -68 228 -143.5t67 -188.5 q0 -143 -113 -235t-289 -92q-135 0 -328 63z" />
<glyph unicode="&#x456;" horiz-adv-x="592" d="M197 0v1086h197v-1086h-197zM197 1283v197h197v-197h-197z" />
<glyph unicode="&#x457;" horiz-adv-x="592" d="M197 0v1086h197v-1086h-197zM12 1283v173h173v-173h-173zM407 1283v173h173v-173h-173z" />
<glyph unicode="&#x458;" horiz-adv-x="623" d="M-153 -369v156q138 -58 210 -58q82 0 127 44q30 30 37.5 68t7.5 159v1086h198v-1086q0 -419 -354 -419q-105 0 -226 50zM229 1283v197h198v-197h-198z" />
<glyph unicode="&#x459;" horiz-adv-x="1641" d="M37 0v173q76 4 119.5 49t75.5 153q70 233 70 604v107h703v-438h95q449 0 449 -316q0 -332 -478 -332h-263v938h-315v-19q0 -453 -110 -689q-108 -230 -346 -230zM1005 148h79q255 0 255 183q0 92 -57.5 130.5t-194.5 38.5h-82v-352z" />
<glyph unicode="&#x45a;" horiz-adv-x="1721" d="M197 0v1086h198v-438h493v438h197v-438h95q448 0 448 -316q0 -332 -478 -332h-262v500h-493v-500h-198zM1085 148h79q254 0 254 183q0 92 -57 130.5t-194 38.5h-82v-352z" />
<glyph unicode="&#x45b;" horiz-adv-x="1271" d="M394 710q156 228 382 228q142 0 225.5 -89.5t83.5 -240.5v-608h-197v543q0 122 -35.5 173.5t-117.5 51.5q-181 0 -341 -237v-531h-197v1135h-197v124h197v295h197v-295h374v-124h-374v-425z" />
<glyph unicode="&#x45c;" horiz-adv-x="1100" d="M394 463v-463h-197v1086h197v-475l18 1q72 4 104 27t69 94l34 66l22 46q73 152 129.5 196.5t179.5 44.5v-148q-59 0 -88 -27.5t-77 -127.5l-19 -40l-25 -55q-44 -91 -143 -142q81 -28 124 -74t114 -182l40 -76q67 -128 125 -214h-218q-31 61 -63 119l-54 95 q-104 187 -173 249h-99zM419 1283l241 321h228l-321 -321h-148z" />
<glyph unicode="&#x45e;" horiz-adv-x="1077" d="M458 67l-446 1019h190l347 -787l311 787h198l-417 -1061q-107 -271 -202 -345.5t-335 -74.5h-23v173h28q151 0 210.5 45.5t126.5 211.5zM198 1579h123q32 -148 210 -148t210 148h123q-15 -134 -106 -215t-227 -81t-226.5 80.5t-106.5 215.5z" />
<glyph unicode="&#x45f;" horiz-adv-x="1283" d="M197 0v1086h197v-913h494v913h197v-1086h-345v-247h-198v247h-345z" />
<glyph unicode="&#x462;" horiz-adv-x="1345" d="M580 154h75q216 0 300 62q106 78 106 221q0 134 -89.5 194t-288.5 60h-103v-537zM370 0v1129h-370v154h370v197h210v-197h395v-154h-395v-284h113q176 0 256 -14.5t152 -60.5q170 -108 170 -319q0 -247 -193 -368q-132 -83 -439 -83h-269z" />
<glyph unicode="&#x463;" horiz-adv-x="1129" d="M493 148h79q255 0 255 180q0 165 -252 165h-82v-345zM296 0v962h-271v124h271v493h197v-493h321v-124h-321v-314h95q449 0 449 -316q0 -332 -478 -332h-263z" />
<glyph unicode="&#x46a;" horiz-adv-x="1649" d="M867 808l440 518h-964l439 -518h85zM923 697v-697h-197v697h-74q-92 -46 -144 -141q-71 -130 -178 -408q-42 -111 -58 -148h-216l22 50q60 135 109 255l47 112q82 201 156.5 277t205.5 95l-456 537v154h1370v-154l-457 -537q132 -19 206 -95t157 -277l46 -112 q49 -120 109 -255l22 -50h-215q-17 38 -59 148q-105 276 -178 408q-52 95 -144 141h-74z" />
<glyph unicode="&#x46b;" horiz-adv-x="1436" d="M730 593h25l344 345h-714zM1394 0h-213l-14 27l-46 88q-38 74 -63 117q-71 120 -74 126q-49 94 -96 123h-67v-481h-197v481h-67q-47 -29 -96 -123q-3 -6 -74 -126q-25 -43 -64 -117l-45 -88l-15 -27h-212q45 72 82 144q38 76 44 87l53 98l40 76q59 107 171 145l64 15 l-373 373v148h1169v-148l-373 -373q173 -27 246 -160l40 -76l54 -98q6 -11 44 -87q37 -72 82 -144z" />
<glyph unicode="&#x490;" horiz-adv-x="1043" d="M191 0v1480h630v297h198v-454h-618v-1323h-210z" />
<glyph unicode="&#x491;" horiz-adv-x="1012" d="M197 0v1086h592v246h198v-419h-593v-913h-197z" />
<glyph unicode="&#x492;" horiz-adv-x="1154" d="M247 0v672h-222v154h222v654h827v-157h-617v-497h370v-154h-370v-672h-210z" />
<glyph unicode="&#x493;" horiz-adv-x="1012" d="M197 0v457h-148v123h148v506h790v-173h-593v-333h346v-123h-346v-457h-197z" />
<glyph unicode="&#x494;" horiz-adv-x="1283" d="M401 801q166 112 338 112q212 0 341 -151.5t129 -401.5q0 -282 -154.5 -469t-387.5 -187q-45 0 -94 16v159q52 -21 99 -21q140 0 227.5 126.5t87.5 329.5q0 200 -75 313t-207 113q-143 0 -304 -130v-610h-210v1480h740v-157h-530v-522z" />
<glyph unicode="&#x495;" horiz-adv-x="1117" d="M394 593q132 80 253 80q164 0 267.5 -130t103.5 -336q0 -223 -119 -363t-308 -140q-25 0 -61 4v146l20 -1q14 -1 25 -1q101 0 167 98t66 249q0 133 -56 214t-147 81q-95 0 -211 -75v-419h-197v1086h672v-148h-475v-345z" />
<glyph unicode="&#x496;" horiz-adv-x="1788" d="M936 697v-697h-198v697h-86q-92 -46 -144 -141q-71 -130 -178 -408q-42 -111 -58 -148h-216l22 50q60 135 109 255l47 112q74 180 136 254t167 107q-55 32 -90 80.5t-101 184.5l-37 78q-63 129 -99 167t-95 38v154l21 1q103 0 172.5 -63.5t154.5 -234.5l31 -64l40 -81 q60 -120 97.5 -156.5t106.5 -39.5v638h198v-638q70 8 110 46t94 150q27 54 40 81l31 64q85 171 154.5 234.5t172.5 63.5l21 -1v-154q-59 0 -95 -38t-99 -167l-37 -78q-66 -136 -101 -184.5t-90 -80.5q105 -33 167 -107t136 -254l46 -112q40 -97 47 -113l8 -19h198v-469h-198 v296h-139q-17 38 -59 148q-105 276 -177 408q-52 95 -144 141h-86z" />
<glyph unicode="&#x497;" horiz-adv-x="1604" d="M646 0v481h-91q-47 -29 -96 -123q-3 -6 -74 -126q-25 -43 -64 -117l-45 -88l-15 -27h-212q45 72 82 144q38 76 44 87l53 98l40 76q59 107 171 145q-79 46 -140 175l-20 42q-7 15 -23 53q-28 67 -50 89t-66 29v148h11q87 0 138 -47t111 -181l23 -53q49 -109 85 -148 t88 -39l50 -1v469h198v-469l50 1q52 0 87.5 38.5t84.5 148.5l24 53q61 135 111 181.5t138 46.5h10v-148q-44 -7 -65.5 -29t-49.5 -89q-16 -38 -23 -53l-20 -42q-61 -129 -141 -175q113 -38 172 -145l39 -76l54 -98l30 -58h197v-420h-197v247h-117l-14 27l-46 88 q-38 74 -63 117q-71 120 -74 126q-49 94 -96 123h-91v-481h-198z" />
<glyph unicode="&#x498;" horiz-adv-x="1107" d="M65 25v185q233 -86 402 -86q152 0 242.5 75.5t90.5 202.5q0 152 -119 231.5t-348 79.5h-31v148h29q205 0 318 74.5t113 210.5q0 216 -305 216q-159 0 -367 -77v170q191 62 379 62q243 0 376 -92.5t133 -262.5q0 -263 -322 -358q173 -28 269.5 -129.5t96.5 -253.5 q0 -195 -158 -326.5t-393 -131.5q-210 0 -406 62zM427 0h97l-60 -109q77 0 135.5 -47.5t58.5 -110.5q0 -69 -58.5 -117t-142.5 -48q-72 0 -146 21v81q46 -15 105 -15q103 0 103 74q0 96 -187 96z" />
<glyph unicode="&#x499;" horiz-adv-x="984" d="M86 22v166q156 -60 321 -60q115 0 186.5 52.5t71.5 136.5q0 198 -316 198h-26v130h33q281 0 281 158q0 157 -252 157q-126 0 -280 -55v159q143 46 315 46q197 0 307.5 -70t110.5 -195q0 -157 -199 -263q233 -71 233 -266q0 -147 -134.5 -244t-337.5 -97q-132 0 -314 47z M375 0h97l-60 -109q77 0 135.5 -47.5t58.5 -110.5q0 -69 -58.5 -117t-142.5 -48q-72 0 -146 21v81q46 -15 105 -15q103 0 103 74q0 96 -187 96z" />
<glyph unicode="&#x49a;" horiz-adv-x="1308" d="M930 0l-16 31l-65 131l-84 172q-129 262 -262 351h-102v-685h-210v1480h210v-639h10q83 0 125 40.5t146 217.5l63 108l52 92q59 101 119 141.5t150 40.5l26 -1v-154q-11 1 -16 1q-78 0 -162 -151l-39 -71l-31 -54q-76 -136 -117 -187t-104 -90q108 -36 168.5 -103.5 t150.5 -251.5l51 -103l56 -117l12 -26h198v-494h-198v321h-131z" />
<glyph unicode="&#x49b;" horiz-adv-x="1160" d="M394 463v-463h-197v1086h197v-476l19 1q72 3 102 24.5t71 97.5l35 65l24 52q63 135 123 185.5t158 50.5h24v-148q-56 0 -91 -32.5t-74 -122.5l-17 -39q-40 -91 -71 -128t-97 -70q93 -40 126.5 -76t112.5 -183l61 -114h198v-420h-198v247h-115q-23 44 -59 107 q-36 64 -59 107q-95 173 -174 249h-99z" />
<glyph unicode="&#x49c;" horiz-adv-x="1485" d="M401 685v-685h-210v1480h210v-639h148v297h123v-297h8q64 0 107 45t142 213l63 108l52 92q59 101 118.5 141.5t150.5 40.5l25 -1v-154q-10 1 -16 1q-77 0 -161 -151l-39 -71l-31 -54q-76 -136 -117 -187t-104 -90q107 -36 168 -103.5t151 -251.5l51 -103q9 -19 55 -117 q54 -113 103 -199h-222l-15 31l-65 131l-84 172q-129 262 -263 351h-77v-296h-123v296h-148z" />
<glyph unicode="&#x49d;" horiz-adv-x="1366" d="M197 0v1086h197v-475h149v222h123v-222h7q67 0 104.5 25.5t73.5 96.5l34 66l22 46q73 152 130 196.5t179 44.5v-148q-58 0 -87.5 -27.5t-77.5 -127.5l-19 -40l-25 -55q-44 -91 -143 -142q81 -28 124 -74t114 -182l40 -76q68 -128 125 -214h-218q-31 61 -63 119l-53 95 q-105 187 -174 249h-93v-222h-123v222h-149v-463h-197z" />
<glyph unicode="&#x49e;" horiz-adv-x="1245" d="M223 0v1135h-204v148h204v197h209v-197h204v-148h-204v-294h11q82 0 124.5 40.5t146.5 217.5l63 108l52 92q58 101 118 141.5t151 40.5l25 -1v-154q-10 1 -16 1q-77 0 -161 -151l-39 -71l-31 -54q-76 -136 -117 -187t-104 -90q107 -36 168 -103.5t151 -251.5l50 -103 q10 -19 56 -117q54 -113 103 -199h-222l-15 31l-66 131l-83 172q-129 262 -263 351h-102v-685h-209z" />
<glyph unicode="&#x49f;" horiz-adv-x="1100" d="M197 0v1209h-197v123h197v247h197v-247h260v-123h-260v-598l18 1q72 4 104 27t69 94l34 66l22 46q73 152 129.5 196.5t179.5 44.5v-148q-59 0 -88 -27.5t-77 -127.5l-19 -40l-25 -55q-44 -91 -143 -142q81 -28 124 -74t114 -182l40 -76q67 -128 125 -214h-218 q-31 61 -63 119l-54 95q-104 187 -173 249h-99v-463h-197z" />
</font>
</defs>
</svg>
