<?xml version="1.0" standalone="no"?>
<!DOCTYPE svg PUBLIC "-//W3C//DTD SVG 1.1//EN" "http://www.w3.org/Graphics/SVG/1.1/DTD/svg11.dtd" >
<svg>
<metadata>
Created by FontForge 20090914 at Fri Oct 17 23:08:29 2014
 By www-data
Copyright (c) 2012 by Alvaro Thomaz. All rights reserved.
</metadata>
<defs>
<font id="Aliquam-UltraLight" horiz-adv-x="532" >
  <font-face 
    font-family="Aliquam"
    font-weight="200"
    font-stretch="normal"
    units-per-em="1000"
    panose-1="2 0 5 6 0 0 0 2 0 4"
    ascent="800"
    descent="-200"
    x-height="519"
    cap-height="721"
    bbox="0 -191.001 1040 940"
    underline-thickness="50"
    underline-position="-75"
    unicode-range="U+0020-U+F001"
  />
<missing-glyph horiz-adv-x="454" 
d="M39 0v804h375v-804h-375zM101 63h250v679h-250v-679z" />
    <glyph glyph-name=".notdef" horiz-adv-x="454" 
d="M39 0v804h375v-804h-375zM101 63h250v679h-250v-679z" />
    <glyph glyph-name="space" unicode=" " horiz-adv-x="205" 
 />
    <glyph glyph-name="exclam" unicode="!" horiz-adv-x="110" 
d="M57 184h-20v537h20v-537zM57 0h-20v99h20v-99z" />
    <glyph glyph-name="quotedbl" unicode="&#x22;" horiz-adv-x="212" 
d="M171 494h-20v227h20v-227zM59 494h-20v227h20v-227z" />
    <glyph glyph-name="numbersign" unicode="#" horiz-adv-x="507" 
d="M496 430h-121l-24 -179h117v-20h-121l-31 -231h-20l31 231h-172l-31 -231h-20l31 231h-125v20h130l24 179h-126v20h131l31 237h20l-31 -237h171l31 237h20l-31 -237h116v-20zM355 430h-171l-24 -179h171z" />
    <glyph glyph-name="dollar" unicode="$" horiz-adv-x="568" 
d="M549 177c0 -64 -26.999 -113.667 -80.999 -149c-46.667 -30 -103.667 -45 -171 -45v-89h-20v90c-81.333 3.33301 -144.333 26 -189 68c-46.667 44 -70 106.333 -70 187h20c0 -151.333 79.667 -229.666 239 -234.999v360c-78.667 17.333 -132 34 -160 50
c-52 30 -78 76 -78 138c0 63.333 25 111.333 75 144c41.333 27.333 95.666 41.333 162.999 42v44h20v-45c152.667 -3.33301 232 -76 238 -218h-20c-4 128.667 -76.667 194.667 -218 198v-337c92 -23.333 149.333 -41.333 172 -54c53.333 -30.667 80 -80.334 80 -149.001z
M277.001 385l0.000976562 333.001c-60 -0.666992 -109.333 -13 -148 -37c-46.667 -29.333 -70 -72.333 -70 -129c0 -54.667 24.333 -95.334 73 -122.001c25.333 -14.667 73.666 -29.667 144.999 -45zM529.002 178.001c0 60 -25.333 104.001 -76 132.001
c-24 13.333 -76 29.666 -156 48.999v-356c62 0 114.333 13.333 157 40c50 32 75 77 75 135z" />
    <glyph glyph-name="percent" unicode="%" horiz-adv-x="692" 
d="M332 525c0 -48.667 -13.999 -89.333 -41.999 -122s-65.667 -49 -113 -49c-48.667 0 -86.667 16.667 -114 50c-25.333 30.667 -38 70.667 -38 120c0 50 12.333 91 37 123c27.333 34.667 65.666 52 114.999 52s88 -17 116 -51c26 -31.333 39 -72.333 39 -123z
M591.001 721.001l-476 -755h-23l476 755h23zM668.001 160.001c0 -48.667 -13.666 -88.999 -40.999 -120.999c-28.667 -34 -66.667 -51 -114 -51c-48.667 0 -86.667 16.667 -114 50c-25.333 31.333 -38 71.666 -38 120.999c0 50 12.333 91 37 123
c27.333 34 65.666 51 114.999 51s88 -16.667 116 -50c26 -31.333 39 -72.333 39 -123zM312.002 524.002c0 46.667 -10.666 83.3311 -31.999 109.998c-24 30 -58.333 45 -103 45s-78.334 -15 -101.001 -45c-20.667 -27.333 -31 -64 -31 -110
c0 -43.333 11 -78.666 33 -105.999c23.333 -29.333 56.333 -44 99 -44c42 0 75 14.333 99 43s36 64.334 36 107.001zM648.003 158.999c0 46 -11.3311 83.166 -33.998 111.499s-56.334 42.5 -101.001 42.5s-78.334 -15 -101.001 -45c-20.667 -26.667 -31 -63 -31 -109
c0 -43.333 11 -78.666 33 -105.999c23.333 -30 56.333 -45 99 -45c42 0 75.333 15 100 45c23.333 28 35 63.333 35 106z" />
    <glyph glyph-name="ampersand" unicode="&#x26;" horiz-adv-x="567" 
d="M552 0h-25.999l-89 114c-47.333 -87.333 -117 -131 -209 -131c-53.333 0 -100 16.333 -140 49c-42.667 34.667 -64 78 -64 130c0 50.667 21.333 97.667 64 141c24 24.667 66.667 56.334 128 95.001l-67 88c-26 38 -39 71.667 -39 101c0 40.667 14 73.167 42 97.5
s62.667 36.5 104 36.5s76 -12.167 104 -36.5s42 -56.833 42 -97.5s-17.667 -78.667 -53 -114c-10.667 -10.667 -45.334 -37.334 -104.001 -80.001l188 -240c16 36 25.667 95.333 29 178h20c-3.33301 -85.333 -15 -151 -35 -197zM382.001 587
c0 34 -12.167 61.499 -36.5 82.499s-53.833 31.5 -88.5 31.5c-35.333 0 -65.333 -10 -90 -30s-37 -47.333 -37 -82c0 -25.333 13 -57.333 39 -96c4 -6.66699 25.333 -35 64 -85c48 32.667 80.333 57.334 97 74.001c34.667 34 52 69 52 105zM424.001 132.999
l-195.999 248.999c-62 -39.333 -102.667 -68.666 -122 -87.999c-41.333 -39.333 -62 -83.333 -62 -132c0 -48 19 -87 57 -117c35.333 -28 77.666 -42 126.999 -42c88 0 153.333 43.333 196 130z" />
    <glyph glyph-name="quotesingle" unicode="'" horiz-adv-x="114" 
d="M59 494h-20v227h20v-227z" />
    <glyph glyph-name="parenleft" unicode="(" horiz-adv-x="160" 
d="M148 -179l-20 -0.000976562c-78 152.667 -117 307.334 -117 464.001c0 158 38.667 309 116 453h20c-77.333 -144 -116 -295 -116 -453c0 -165.333 39 -320 117 -464z" />
    <glyph glyph-name="parenright" unicode=")" horiz-adv-x="161" 
d="M150 275c0 -157.333 -38.667 -308.666 -116 -453.999h-20c77.333 145.333 116 296.666 116 453.999c0 166 -39 320.333 -117 463h20c78 -152 117 -306.333 117 -463z" />
    <glyph glyph-name="asterisk" unicode="*" horiz-adv-x="306" 
d="M297 604l-130 -43l83 -111l-16 -12l-83 109l-84 -105l-16 14l88 105l-130 43l6 19l126 -43v141h20v-141l132 43z" />
    <glyph glyph-name="plus" unicode="+" horiz-adv-x="506" 
d="M505 245h-242v-245h-20v245h-242v21h242v245h20v-245h242v-21z" />
    <glyph glyph-name="comma" unicode="," horiz-adv-x="80" 
d="M54 0c0 -59.333 -14.667 -99.333 -44 -120v20c17.333 17.333 26 58.333 26 123c0 12 -0.333008 26.667 -1 44s-1 28 -1 32h20v-99z" />
    <glyph glyph-name="hyphen" unicode="-" horiz-adv-x="255" 
d="M214 261h-175v20h175v-20z" />
    <glyph glyph-name="hyphen" unicode="&#x2010;" horiz-adv-x="255" 
d="M214 261h-175v20h175v-20z" />
    <glyph glyph-name="period" unicode="." horiz-adv-x="114" 
d="M59 0h-20v99h20v-99z" />
    <glyph glyph-name="slash" unicode="/" horiz-adv-x="349" 
d="M348 738l-327 -755h-20l327 755h20z" />
    <glyph glyph-name="zero" unicode="0" horiz-adv-x="572" 
d="M543 343c0 -97.333 -18.333 -177 -55 -239c-44.667 -77.333 -112 -116 -202 -116c-90.667 0 -158.334 38.667 -203.001 116c-36 62 -54 141.667 -54 239s18 177.333 54 240c44.667 77.333 112.334 116 203.001 116c90 0 157.333 -38.667 202 -116
c36.667 -62.667 55 -142.667 55 -240zM523 343c0 91.333 -16.333 166.333 -49 225c-41.333 74 -104 111 -188 111c-84.667 0 -147.334 -37 -188.001 -111c-32.667 -58.667 -49 -133.667 -49 -225s16.333 -166.333 49 -225c40.667 -73.333 103.334 -110 188.001 -110
c84 0 146.333 36.667 187 110c33.333 58.667 50 133.667 50 225z" />
    <glyph glyph-name="one" unicode="1" horiz-adv-x="243" 
d="M203 0h-20v661h-2l-181 -122v21l181 127h22v-687z" />
    <glyph glyph-name="two" unicode="2" horiz-adv-x="495" 
d="M487 0l-458.002 -0.00195312c0 62 36.333 123 109 183l202 148c72.667 60 109 121 109 183c0 52.667 -18.667 94 -56 124c-34.667 27.333 -79 41 -133 41c-66.667 0 -117 -20 -151 -60c-32 -37.333 -48 -89.666 -48 -156.999h-20c0 73.333 18.333 131.166 55 173.499
s91.334 63.5 164.001 63.5c60 0 109 -15.333 147 -46c41.333 -33.333 62 -79.666 62 -138.999c0 -65.333 -35 -128.666 -105 -189.999l-197 -145c-73.333 -56 -112.666 -109 -117.999 -159h438v-20z" />
    <glyph glyph-name="three" unicode="3" horiz-adv-x="536" 
d="M507 190c0 -61.333 -23.666 -110.999 -70.999 -148.999c-43.333 -35.333 -96.333 -53 -159 -53c-74 0 -134 18.667 -180 56c-49.333 40.667 -72 96.667 -68 168l1 20h20l-1 -22c-3.33301 -65.333 17.667 -116 63 -152c42 -33.333 97 -50 165 -50
c57.333 0 105.666 15.667 144.999 47c43.333 34 65 79 65 135c0 69.333 -25.667 117 -77 143c-36 18 -91.667 27 -167 27v20c70 0 121.667 7.66699 155 23c50.667 22.667 76 65 76 127c0 50 -20.667 88.333 -62 115c-34.667 22.667 -78.334 34 -131.001 34
c-66.667 0 -118.667 -17.667 -156 -53s-56 -86 -56 -152h-20c0 72 20.5 127.5 61.5 166.5s97.833 58.5 170.5 58.5c59.333 0 108 -13 146 -39c44.667 -30 67 -73.333 67 -130c0 -44.667 -13.333 -81.334 -40 -110.001s-62 -45 -106 -49v-2
c48.667 -4.66699 87.334 -23.167 116.001 -55.5s43 -73.5 43 -123.5z" />
    <glyph glyph-name="four" unicode="4" horiz-adv-x="502" 
d="M490 179h-123v-179h-20v179h-345v24l340 484h25v-488h123v-20zM347 199v460h-2l-323 -460h325z" />
    <glyph glyph-name="five" unicode="5" horiz-adv-x="510" 
d="M496 228c0 -71.333 -21.5 -129.168 -64.5 -173.501s-99.833 -66.5 -170.5 -66.5c-72 0 -129.333 20.833 -172 62.5s-64 98.167 -64 169.5h20c0 -66 19.5 -117.833 58.5 -155.5s91.5 -56.5 157.5 -56.5c65.333 0 117.5 20.167 156.5 60.5s58.5 93.5 58.5 159.5
c0 64 -19.833 116.167 -59.5 156.5s-91.5 60.5 -155.5 60.5c-40 0 -76.667 -8.66699 -110 -26c-35.333 -19.333 -62 -45.666 -80 -78.999h-25l73 347h349v-20h-333l-62 -294h2c38 62 100 93 186 93c69.333 0 125.833 -22.333 169.5 -67s65.5 -101.667 65.5 -171z" />
    <glyph glyph-name="six" unicode="6" horiz-adv-x="534" 
d="M507 225c0 -65.333 -22.9971 -121.166 -68.9971 -167.499s-101.333 -69.5 -166 -69.5c-162 0 -243 112 -243 336c0 100 17.333 183 52 249c44.667 84 112.667 126 204 126c53.333 0 99.666 -15.833 138.999 -47.5s63 -73.834 71 -126.501h-20
c-10.667 48.667 -32.834 86.5 -66.501 113.5s-75.167 40.5 -124.5 40.5c-90.667 0 -155.334 -45.333 -194.001 -136c-28 -64.667 -42 -149 -42 -253h2c10 50 36.5 91.333 79.5 124s90.5 49 142.5 49c64.667 0 120 -23.5 166 -70.5s69 -102.833 69 -167.5zM487.003 225
c0 59.333 -21 110.333 -63 153s-92.667 64 -152 64c-60 0 -110.833 -21.333 -152.5 -64s-62.5 -93.667 -62.5 -153s20.833 -110.333 62.5 -153s92.5 -64 152.5 -64c59.333 0 110 21.333 152 64s63 93.667 63 153z" />
    <glyph glyph-name="seven" unicode="7" horiz-adv-x="516" 
d="M512 660c-100 -100 -174.333 -199.667 -223 -299c-56 -112.667 -84 -233 -84 -361h-20c0 240.667 101.667 463 305 667h-412v20h434v-27z" />
    <glyph glyph-name="eight" unicode="8" horiz-adv-x="548" 
d="M521 192c0 -68 -24.998 -120 -74.998 -156c-44 -32 -101.333 -48 -172 -48s-128.334 16 -173.001 48c-49.333 36 -74 88 -74 156c0 52.667 15.667 95.5 47 128.5s73.666 51.833 126.999 56.5v2c-39.333 5.33301 -72.5 21.333 -99.5 48s-40.5 59.334 -40.5 98.001
c0 59.333 21.333 104 64 134c37.333 26.667 87 40 149 40c61.333 0 110.666 -13.333 147.999 -40c43.333 -30 65 -74.667 65 -134c0 -38.667 -13.5 -71.334 -40.5 -98.001s-60.167 -42.667 -99.5 -48v-2c52.667 -4.66699 94.834 -23.5 126.501 -56.5
s47.5 -75.833 47.5 -128.5zM467.002 525c0 53.333 -19.667 93.333 -59 120c-34 22.667 -78.667 34 -134 34c-56 0 -101 -11.333 -135 -34c-38.667 -26.667 -58 -66.667 -58 -120c0 -46 21.333 -81.667 64 -107c36 -21.333 79 -32 129 -32c49.333 0 92 10.667 128 32
c43.333 25.333 65 61 65 107zM501.002 192c0 61.333 -23.6689 107 -71.002 137c-38.667 24.667 -90.667 37 -156 37s-117.666 -12.333 -156.999 -37c-46.667 -30 -70 -75.667 -70 -137c0 -62 23 -109.333 69 -142c40.667 -28 93.334 -42 158.001 -42s117 14 157 42
c46.667 32.667 70 80 70 142z" />
    <glyph glyph-name="nine" unicode="9" horiz-adv-x="535" 
d="M506 363c0 -100 -17.667 -183 -53 -249c-44.667 -84 -112.667 -126 -204 -126c-54 0 -100.667 15.833 -140 47.5s-62.666 73.834 -69.999 126.501h20c10.667 -48.667 32.667 -86.5 66 -113.5s75 -40.5 125 -40.5c90 0 154.667 45.333 194 136c28 64.667 42 149 42 253h-2
c-10.667 -50 -37.334 -91.333 -80.001 -124s-90 -49 -142 -49c-64.667 0 -120 23.5 -166 70.5s-69 102.833 -69 167.5c0 65.333 22.833 121.166 68.5 167.499s101.167 69.5 166.5 69.5c162.667 0 244 -112 244 -336zM477 462c0 59.333 -21 110.333 -63 153
s-92.667 64 -152 64s-110 -21.333 -152 -64s-63 -93.667 -63 -153c0 -60 21 -111.333 63 -154s92.667 -64 152 -64c60 0 110.833 21.333 152.5 64s62.5 94 62.5 154z" />
    <glyph glyph-name="colon" unicode=":" horiz-adv-x="69" 
d="M59 420h-20v99h20v-99zM59 0h-20v99h20v-99z" />
    <glyph glyph-name="semicolon" unicode=";" horiz-adv-x="77" 
d="M47 420h-20v99h20v-99zM47 0c0 -59.333 -14.667 -99.333 -44 -120v20c17.333 17.333 26 58.333 26 123c0 12 -0.333008 26.667 -1 44s-1 28 -1 32h20v-99z" />
    <glyph glyph-name="less" unicode="&#x3c;" horiz-adv-x="537" 
d="M509 -8l-508 251v25l508 251v-21l-490 -242l490 -243v-21z" />
    <glyph glyph-name="equal" unicode="=" horiz-adv-x="525" 
d="M514 343h-504v21h504v-21zM514 147h-504v21h504v-21z" />
    <glyph glyph-name="greater" unicode="&#x3e;" horiz-adv-x="537" 
d="M536 243l-508 -251v21l490 243l-490 242v21l508 -251v-25z" />
    <glyph glyph-name="question" unicode="?" horiz-adv-x="432" 
d="M421 571c0 -50.667 -16.999 -95.333 -50.999 -134l-95 -97c-34 -42.667 -51 -94.667 -51 -156h-20c0 63.333 17 117.333 51 162l95 98c34 38 51 80.333 51 127c0 48 -18 85.333 -54 112c-32 23.333 -73 35 -123 35c-64.667 0 -114.334 -21 -149.001 -63
c-32 -38.667 -39 -91 -21 -157h-20c-18 71.333 -9 128.333 27 171c39.333 46 93.666 69 162.999 69c54.667 0 100.334 -13.667 137.001 -41c40 -30.667 60 -72.667 60 -126zM224.001 0.000976562h-20v99h20v-99z" />
    <glyph glyph-name="at" unicode="@" horiz-adv-x="741" 
d="M713 415c0 -62.667 -19.667 -123.667 -59 -183c-44.667 -66 -97 -99 -157 -99c-18.667 0 -33.167 6 -43.5 18s-15.5 27.333 -15.5 46h-2c-30 -42.667 -75.333 -64 -136 -64c-39.333 0 -72 15 -98 45c-25.333 28 -38 62 -38 102c0 69.333 22 134 66 194
c47.333 65.333 104.333 98 171 98c30 0 58.167 -7.5 84.5 -22.5s43.833 -36.167 52.5 -63.5h2l24 66h21l-73 -182c-36.667 -95.333 -55 -154.333 -55 -177c0 -26 14 -39 42 -39c54 0 101 31 141 93c35.333 55.333 53 111.333 53 168c0 84.667 -29.667 153.667 -89 207
c-57.333 51.333 -129 77 -215 77c-95.333 0 -176.166 -33.167 -242.499 -99.5s-99.5 -147.166 -99.5 -242.499c0 -103.333 31.333 -187.333 94 -252s145.334 -97 248.001 -97c57.333 0 112 15 164 45c50.667 28 92.667 66.333 126 115h23
c-32.667 -54 -77.334 -97.5 -134.001 -130.5s-116.334 -49.5 -179.001 -49.5c-108.667 0 -196.167 34.167 -262.5 102.5s-99.5 157.166 -99.5 266.499c0 101.333 35 187 105 257s155.667 105 257 105c92 0 168.333 -27.333 229 -82c63.333 -57.333 95 -131.333 95 -222z
M529 461c-16 60 -60.002 89.999 -132.002 89.999c-59.333 0 -110.666 -31 -153.999 -93c-39.333 -56.667 -59 -116 -59 -178c0 -35.333 11.333 -65.166 34 -89.499s51.334 -36.5 86.001 -36.5c45.333 0 84 18.667 116 56c24 28 46 69.333 66 124z" />
    <glyph glyph-name="A" unicode="A" horiz-adv-x="625" 
d="M611 0h-22l-94 237h-364l-95 -237h-23l290 721h26zM487 258l-170 443h-2l-176 -443h348z" />
    <glyph glyph-name="B" unicode="B" horiz-adv-x="600" 
d="M570 196c0 -64.667 -23.667 -114.665 -71 -149.998c-42 -30.667 -96.667 -46 -164 -46h-295v721h307c59.333 0 107 -15 143 -45c38.667 -32.667 58 -77.667 58 -135c0 -43.333 -14.333 -80.833 -43 -112.5s-64.667 -48.834 -108 -51.501v-2
c50.667 -1.33301 92.167 -18.833 124.5 -52.5s48.5 -75.834 48.5 -126.501zM528 541.002c0 52 -17.333 92.332 -52 120.999c-32.667 26 -75.667 39 -129 39h-287v-315h287c50.667 0 92.667 13 126 39c36.667 28.667 55 67.334 55 116.001zM550 195.001
c0 56.667 -20.332 100.001 -60.999 130.001c-36 27.333 -83.333 41 -142 41h-287v-346h284c59.333 0 107.666 14 144.999 42c40.667 31.333 61 75.666 61 132.999z" />
    <glyph glyph-name="C" unicode="C" horiz-adv-x="688" 
d="M665 283c-12 -89.333 -44.335 -160.666 -97.002 -213.999c-56.667 -57.333 -129 -86 -217 -86c-99.333 0 -179 38 -239 114c-56 69.333 -84 155.333 -84 258c0 107.333 28.667 196.666 86 267.999c62 76.667 145.333 115 250 115c70 0 133 -21 189 -63
c61.333 -46 93.333 -102.667 96 -170h-20c-5.33301 63.333 -35.333 115.333 -90 156c-51.333 38 -109.666 57 -174.999 57c-98 0 -176 -36.667 -234 -110c-54.667 -68 -82 -152.333 -82 -253c0 -96 26.333 -177 79 -243c56.667 -72.667 131.334 -109 224.001 -109
c82.667 0 150.334 26.667 203.001 80c49.333 50 79.666 116.667 90.999 200h20z" />
    <glyph glyph-name="D" unicode="D" horiz-adv-x="622" 
d="M594 361c0 -108.667 -28.334 -195.333 -85.001 -260c-60 -67.333 -143.333 -101 -250 -101h-219v721h250c102.667 0 180.334 -35 233.001 -105c47.333 -63.333 71 -148.333 71 -255zM573.999 361.001c0 104 -22.001 185 -66.001 243
c-49.333 64.667 -123.666 97 -222.999 97h-225v-681h204c98.667 0 176 32.667 232 98c52 61.333 78 142.333 78 243z" />
    <glyph glyph-name="E" unicode="E" horiz-adv-x="517" 
d="M517 0h-478v721h474v-20h-454v-315h427v-20h-427v-346h458v-20z" />
    <glyph glyph-name="F" unicode="F" horiz-adv-x="479" 
d="M479 701h-420v-315h380v-20h-380v-366h-20v721h440v-20z" />
    <glyph glyph-name="G" unicode="G" horiz-adv-x="697" 
d="M671 317c0 -42 -3.66699 -78 -11 -108s-16.666 -56 -27.999 -78s-24.666 -40.833 -39.999 -56.5s-31 -29.5 -47 -41.5c-54 -33.333 -114.667 -50 -182 -50c-106 0 -189.333 37.333 -250 112c-56.667 68.667 -85 157.334 -85 266.001c0 106 29 194 87 264
c61.333 75.333 144 113 248 113c77.333 0 143.166 -21.5 197.499 -64.5s87.166 -102.167 98.499 -177.5h-20c-12.667 69.333 -44 123.666 -94 162.999s-110.667 59 -182 59c-97.333 0 -175 -35.667 -233 -107c-54.667 -66.667 -82 -150 -82 -250
c0 -102.667 27 -186.667 81 -252c57.333 -70.667 136.333 -106 237 -106c92 0 163.333 30.333 214 91c46.667 56 70 130.333 70 223h-277v20h297z" />
    <glyph glyph-name="H" unicode="H" horiz-adv-x="619" 
d="M579 0h-20v366h-500v-366h-20v721h20v-335h500v335h20v-721z" />
    <glyph glyph-name="I" unicode="I" horiz-adv-x="114" 
d="M67 0h-20v721h20v-721z" />
    <glyph glyph-name="J" unicode="J" horiz-adv-x="424" 
d="M367 701h-303v20h323v-533c0 -136.667 -65.333 -205 -196 -205c-74 0 -125.667 23 -155 69c-23.333 36 -32.333 93 -27 171h17c-3.33301 -72.667 4.66699 -125 24 -157c25.333 -42 72.333 -63 141 -63c64.667 0 110.667 17.333 138 52c25.333 32 38 81.333 38 148v498z
" />
    <glyph glyph-name="K" unicode="K" horiz-adv-x="629" 
d="M604 0h-27l-354 402l-164 -146v-256h-20v721h20v-438l495 438h30l-345 -307z" />
    <glyph glyph-name="L" unicode="L" horiz-adv-x="476" 
d="M476 0h-437v721h20v-701h417v-20z" />
    <glyph glyph-name="M" unicode="M" horiz-adv-x="750" 
d="M711 0h-20v696h-2l-303 -696h-22l-303 696h-2v-696h-20v721h33l302 -695h2l302 695h33v-721z" />
    <glyph glyph-name="N" unicode="N" horiz-adv-x="619" 
d="M579 0h-30l-488 696h-2v-696h-20v721h30l488 -696h2v696h20v-721z" />
    <glyph glyph-name="O" unicode="O" horiz-adv-x="714" 
d="M686 361c0 -106 -27.667 -194 -83 -264c-60.667 -76 -142.667 -114 -246 -114s-185.333 38 -246 114c-55.333 70 -83 158 -83 264s27.667 194 83 264c60.667 75.333 142.667 113 246 113s185.333 -37.667 246 -113c55.333 -70 83 -158 83 -264zM666 361
c0 100.667 -25.667 184 -77 250c-56.667 71.333 -134 107 -232 107s-175.333 -35.667 -232 -107c-51.333 -66 -77 -149.333 -77 -250s25.667 -184 77 -250c56.667 -72 134 -108 232 -108s175.333 36 232 108c51.333 66 77 149.333 77 250z" />
    <glyph glyph-name="P" unicode="P" horiz-adv-x="548" 
d="M545 524c0 -78.667 -32.333 -134 -97 -166c-38 -20.667 -79 -30.667 -123 -30h-266v-328h-20v721h289c66.667 0 119 -16 157 -48c40 -34 60 -83.667 60 -149zM525 524c0 118 -65.667 177 -197 177h-269v-353h269c56.667 0 103 15 139 45c38.667 32 58 75.667 58 131z" />
    <glyph glyph-name="Q" unicode="Q" horiz-adv-x="702" 
d="M343 -16l-17 0.000976562c-92 5.33301 -165.667 43 -221 113c-56 70 -84 158 -84 264s28 194 84 264c60 75.333 141.667 113 245 113c104 0 186 -37.667 246 -113c55.333 -70 83 -158 83 -264c0 -122.667 -35.333 -219 -106 -289l-13 -13
c-55.333 -50.667 -121 -75.667 -197 -75c0 -64 59 -91.667 177 -83l-6 -20c-127.333 -8.66699 -191 25.666 -191 102.999zM659 361.001c0 100.667 -25.667 184.001 -77 250.001c-56.667 71.333 -134 107 -232 107s-175 -35.667 -231 -107c-52 -66 -78 -149.333 -78 -250
s26 -184 78 -250c56 -72 133 -108 231 -108c76.667 0 140.667 22.667 192 68l14 13c68.667 65.333 103 157.666 103 276.999z" />
    <glyph glyph-name="R" unicode="R" horiz-adv-x="580" 
d="M510 0l-146 338.001h-305v-338h-20v721h292c145.333 0 218 -61.667 218 -185c0 -100.667 -54 -165.334 -162 -194.001l148 -342h-25zM529 538.001c0 108.667 -64.334 163 -193.001 163h-277v-342h267c58.667 0 106.334 14.667 143.001 44c40 32.667 60 77.667 60 135z
" />
    <glyph glyph-name="S" unicode="S" horiz-adv-x="584" 
d="M557 177c0 -64 -27 -113.335 -81 -148.002c-46.667 -30.667 -103.667 -46 -171 -46c-86 0 -153.333 20.667 -202 62c-51.333 44 -77 108.667 -77 194h20c0 -157.333 86.333 -236 259 -236c61.333 0 113.666 13.333 156.999 40c50 32 75 77 75 135
c0 74 -42.333 125.667 -127 155l-236 59c-84.667 30 -127 83.333 -127 160c0 64.667 25.667 113.334 77 146.001c42.667 26.667 98.334 40 167.001 40c162 0 246 -73 252 -219h-20c-4 132.667 -81.333 199 -232 199c-62 0 -112.667 -12 -152 -36
c-48 -28.667 -72 -72 -72 -130c0 -69.333 42.333 -117.666 127 -144.999l236 -60c84.667 -32 127 -88.667 127 -170z" />
    <glyph glyph-name="T" unicode="T" horiz-adv-x="538" 
d="M536 701h-257v-701h-20v701h-257v20h534v-20z" />
    <glyph glyph-name="U" unicode="U" horiz-adv-x="595" 
d="M559 269c0 -90 -21 -159.333 -63 -208c-44.667 -52 -111 -78 -199 -78s-154.333 26 -199 78c-42 48.667 -63 118 -63 208v452h20v-452c0 -177.333 80.667 -266 242 -266s242 88.667 242 266v452h20v-452z" />
    <glyph glyph-name="V" unicode="V" horiz-adv-x="600" 
d="M587 721l-272 -721h-22l-280 721h20l270 -695h2l262 695h20z" />
    <glyph glyph-name="W" unicode="W" horiz-adv-x="940" 
d="M915 721l-207 -721h-27l-210 696h-2l-206 -696h-27l-211 721h21l202 -696h2l206 696h29l209 -696h2l199 696h20z" />
    <glyph glyph-name="X" unicode="X" horiz-adv-x="631" 
d="M602 0h-25l-261 355l-263 -355h-25l275 371l-260 350h26l247 -334l249 334h25l-260 -350z" />
    <glyph glyph-name="Y" unicode="Y" horiz-adv-x="618" 
d="M608 721l-289 -417v-304h-20v304l-289 417h25l274 -396l275 396h24z" />
    <glyph glyph-name="Z" unicode="Z" horiz-adv-x="536" 
d="M532 0h-527v27l499 674h-471v20h491v-27l-499 -674h507v-20z" />
    <glyph glyph-name="bracketleft" unicode="[" horiz-adv-x="153" 
d="M153 -179h-113v917h113v-20h-93v-877h93v-20z" />
    <glyph glyph-name="backslash" unicode="\" horiz-adv-x="349" 
d="M348 -17h-20l-327 755h20z" />
    <glyph glyph-name="bracketright" unicode="]" horiz-adv-x="156" 
d="M113 -179h-113v20h93v877h-93v20h113v-917z" />
    <glyph glyph-name="asciicircum" unicode="^" horiz-adv-x="510" 
d="M496 229h-20l-221 438l-221 -438h-20l231 458h20z" />
    <glyph glyph-name="underscore" unicode="_" horiz-adv-x="581" 
d="M540 -126h-500v50h500v-50z" />
    <glyph glyph-name="grave" unicode="`" horiz-adv-x="161" 
d="M156 593h-15l-139 145h29z" />
    <glyph glyph-name="a" unicode="a" 
d="M472 142c-6 -18.667 -18.999 -42.001 -38.999 -70.001c-42.667 -56 -100.334 -84 -173.001 -84c-72 0 -129.667 28 -173 84c-38.667 50.667 -58 113.334 -58 188.001c0 74 19.667 136.667 59 188c43.333 55.333 101 83 173 83s129.333 -28 172 -84
c16.667 -21.333 29.667 -44.333 39 -69v141h20v-519h-20v142zM472.001 259.999c0 68 -17.668 125.668 -53.001 173.001c-39.333 52 -92 78 -158 78s-118.667 -26 -158 -78c-36 -46.667 -54 -104.334 -54 -173.001c0 -69.333 17.667 -127.333 53 -174
c39.333 -52 92.333 -78 159 -78s119.334 26 158.001 78c35.333 47.333 53 105.333 53 174z" />
    <glyph glyph-name="b" unicode="b" horiz-adv-x="496" 
d="M487 259c0 -74 -17.668 -136 -53.001 -186c-39.333 -56.667 -94.666 -85 -165.999 -85c-49.333 0 -92.5 14.333 -129.5 43s-62.5 66.667 -76.5 114h-2v-145h-20v721h20v-347h2c12.667 49.333 37.5 87.833 74.5 115.5s80.833 41.5 131.5 41.5c70 0 125 -28.667 165 -86
c36 -51.333 54 -113.333 54 -186zM466.999 259c0 68 -15.666 125.332 -46.999 171.999c-36.667 53.333 -87.334 80 -152.001 80c-68.667 0 -121.667 -25.667 -159 -77c-32.667 -45.333 -49 -103.666 -49 -174.999c0 -68 17.333 -125.333 52 -172
c38.667 -52.667 90.667 -79 156 -79s116 26.333 152 79c31.333 46 47 103.333 47 172z" />
    <glyph glyph-name="c" unicode="c" horiz-adv-x="491" 
d="M466 177c-5.33301 -57.333 -27.168 -103.167 -65.501 -137.5s-86.5 -51.5 -144.5 -51.5c-70.667 0 -127 26 -169 78c-39.333 48.667 -59 109.334 -59 182.001c0 80.667 19.667 146.667 59 198c42.667 56.667 103 85 181 85c52 0 95.833 -15.333 131.5 -46
s56.5 -71.667 62.5 -123h-20c-7.33301 46 -26.5 82.333 -57.5 109s-69.833 40 -116.5 40c-72 0 -127.667 -26.667 -167 -80c-35.333 -47.333 -53 -108.333 -53 -183c0 -66.667 17.667 -122.334 53 -167.001c38.667 -48.667 90.334 -73 155.001 -73
c51.333 0 95 15.5 131 46.5s55.667 71.833 59 122.5h20z" />
    <glyph glyph-name="d" unicode="d" horiz-adv-x="497" 
d="M456 0h-20.0029v145h-2c-13.333 -47.333 -38.666 -85.333 -75.999 -114s-80.666 -43 -129.999 -43c-70.667 0 -126 28.333 -166 85c-35.333 50 -53 112 -53 186c0 72.667 18 134.667 54 186c40 57.333 95 86 165 86c51.333 0 95.333 -13.833 132 -41.5
s61.334 -66.167 74.001 -115.5h2v347h20v-721zM435.997 259c0 72 -16.333 130.333 -49 175c-36.667 51.333 -89.667 77 -159 77c-64.667 0 -115 -26.667 -151 -80c-32 -46.667 -48 -104 -48 -172c0 -68.667 15.667 -126 47 -172c36 -52.667 86.667 -79 152 -79
s117.333 26.333 156 79c34.667 46.667 52 104 52 172z" />
    <glyph glyph-name="e" unicode="e" horiz-adv-x="505" 
d="M479 256l-430.001 0.000976562c0.666992 -73.333 16 -131.333 46 -174c34.667 -49.333 87 -74 157 -74c54.667 0 99.834 15.167 135.501 45.5s57.5 72.5 65.5 126.5h20c-6.66699 -58.667 -30 -105.334 -70 -140.001s-89.667 -52 -149 -52c-76.667 0 -134.667 27 -174 81
c-34 47.333 -51 111 -51 191c0 72 19 133.667 57 185c42.667 57.333 98.667 86 168 86c74.667 0 132 -28 172 -84c35.333 -49.333 53 -113 53 -191zM458.999 276.001c0 66 -17 120.667 -51 164c-37.333 47.333 -88 71 -152 71c-62 0 -112.333 -24.333 -151 -73
c-34 -43.333 -52.667 -97.333 -56 -162h410z" />
    <glyph glyph-name="f" unicode="f" horiz-adv-x="206" 
d="M206 697c-16.667 2.66699 -32.332 4 -46.999 4c-28.667 0 -48.667 -5.33301 -60 -16s-17 -30 -17 -58v-108h111v-20h-111v-499h-20v499h-50v20h50v94c-2 36 3 62 15 78c16 20 44.667 30 86 30c1.33301 0 15.666 -1.33301 42.999 -4v-20z" />
    <glyph glyph-name="g" unicode="g" horiz-adv-x="503" 
d="M465 17c0 -68 -18.5 -119.667 -55.5 -155s-89.833 -53 -158.5 -53c-56 0 -101.333 13 -136 39c-38.667 29.333 -58.667 71 -60 125h20c2 -48 20 -84.667 54 -110c30.667 -22.667 71 -34 121 -34c130 0 195 62.667 195 188v157h-2c-10 -44 -34.5 -79.333 -73.5 -106
s-81.833 -40 -128.5 -40c-68.667 0 -122.334 25 -161.001 75c-35.333 45.333 -53 103.333 -53 174c0 72 18.333 131.333 55 178c40.667 50.667 96 76 166 76c46 0 87.333 -14 124 -42s60.334 -64 71.001 -108h2v138h20v-502zM444 277c0 63.333 -16.333 116.999 -49 160.999
c-36.667 48.667 -85.667 73 -147 73c-64 0 -114.333 -23.667 -151 -71c-33.333 -42.667 -50 -97 -50 -163c0 -64.667 15.667 -117.667 47 -159c35.333 -46.667 84 -70 146 -70c63.333 0 114 22.667 152 68c34.667 42.667 52 96.334 52 161.001z" />
    <glyph glyph-name="h" unicode="h" horiz-adv-x="443" 
d="M40 714h20v-327h2c4.66699 20 12.167 38.333 22.5 55s23.333 31.334 39 44.001s33.834 22.5 54.501 29.5s43.667 10.5 69 10.5c26.667 0 51.167 -4 73.5 -12s41.666 -19.833 57.999 -35.5s29 -35 38 -58s13.5 -49.5 13.5 -79.5v-341h-20v338c0 30 -4.33301 55.5 -13 76.5
s-20.5 38.333 -35.5 52s-32.333 23.667 -52 30s-40.5 9.5 -62.5 9.5c-30.667 0 -57.667 -5.83301 -81 -17.5s-42.833 -27.334 -58.5 -47.001s-27.5 -42.5 -35.5 -68.5s-12 -53.333 -12 -82v-291h-20v714z" />
    <glyph glyph-name="i" unicode="i" horiz-adv-x="112" 
d="M58 619h-20v102h20v-102zM58 0h-20v519h20v-519z" />
    <glyph glyph-name="j" unicode="j" horiz-adv-x="161" 
d="M124 619h-20v102h20v-102zM124 -76c0 -43.333 -10.333 -71.999 -31 -85.999c-16 -10.667 -47 -16.334 -93 -17.001v20c42 0 69 4.33301 81 13c15.333 11.333 23 37 23 77v588h20v-595z" />
    <glyph glyph-name="k" unicode="k" horiz-adv-x="463" 
d="M461 0h-27l-241 307l-133 -111v-196h-20v721h20v-500l355 298h29l-236 -198z" />
    <glyph glyph-name="l" unicode="l" horiz-adv-x="173" 
d="M59 101c0.666992 -54 24.333 -81 71 -81c10.667 0 25 1 43 3v-20c-22.667 -2 -39 -3 -49 -3c-56 -0 -84.333 32.333 -85 97v624h20v-620z" />
    <glyph glyph-name="m" unicode="m" horiz-adv-x="747" 
d="M40 514l20.001 0.000976562v-127h2c4.66699 20 12.167 38.333 22.5 55s22.666 31.334 36.999 44.001s30.333 22.5 48 29.5s36.5 10.5 56.5 10.5c40 1.33301 73.5 -8.83398 100.5 -30.501s44.833 -51.5 53.5 -89.5h2c10 36 29.833 65 59.5 87s64.167 33 103.5 33
c30.667 0 56.5 -4.66699 77.5 -14s37.833 -22.166 50.5 -38.499s21.667 -36 27 -59s8 -48.5 8 -76.5v-338h-20v338c0 25.333 -2.16699 48.333 -6.5 69s-12 38.334 -23 53.001s-25.667 26 -44 34s-41.5 12 -69.5 12c-25.333 0 -47.833 -4.83301 -67.5 -14.5
s-36.5 -22.834 -50.5 -39.501s-24.667 -35.834 -32 -57.501s-11 -44.5 -11 -68.5v-326h-20v330c0 24 -1.83301 46.667 -5.5 68s-10.5 40 -20.5 56s-24 28.667 -42 38s-41.333 14 -70 14c-25.333 0 -48.333 -5.83301 -69 -17.5s-38.167 -27.334 -52.5 -47.001
s-25.333 -42.5 -33 -68.5s-11.5 -53.333 -11.5 -82v-291h-20v514z" />
    <glyph glyph-name="n" unicode="n" horiz-adv-x="467" 
d="M430 0h-20.001v341c0 52 -14.333 93.333 -43 124s-68.667 46 -120 46c-58.667 0 -105.334 -22 -140.001 -66c-31.333 -40 -47 -90.333 -47 -151v-294h-20v519h20v-128h2c10.667 43.333 32.834 77.5 66.501 102.5s73.167 37.5 118.5 37.5
c56.667 0 101.334 -17 134.001 -51s49 -79.333 49 -136v-344z" />
    <glyph glyph-name="o" unicode="o" horiz-adv-x="520" 
d="M492 260c0 -74.667 -19.666 -137.334 -58.999 -188.001c-42.667 -56 -100.334 -84 -173.001 -84c-72 0 -129.667 28 -173 84c-38.667 50.667 -58 113.334 -58 188.001c0 74 19.667 136.667 59 188c43.333 55.333 101 83 173 83s129.333 -28 172 -84
c39.333 -50.667 59 -113 59 -187zM472.001 260c0 68 -17.668 125.668 -53.001 173.001c-39.333 52 -92 78 -158 78s-118.667 -26 -158 -78c-36 -46.667 -54 -104.334 -54 -173.001c0 -69.333 17.667 -127.333 53 -174c39.333 -52 92.333 -78 159 -78s119.334 26 158.001 78
c35.333 47.333 53 105.333 53 174z" />
    <glyph glyph-name="p" unicode="p" horiz-adv-x="497" 
d="M487 261c0 -73.333 -17.665 -135.333 -52.998 -186c-40.667 -58 -96 -87 -166 -87c-50.667 0 -94.5 14 -131.5 42s-61.833 66.333 -74.5 115h-2v-324h-20v698h20v-145h2c13.333 47.333 38.666 85.333 75.999 114s80.666 43 129.999 43c70.667 0 126 -28.333 166 -85
c35.333 -49.333 53 -111 53 -185zM467.002 261c0 68 -15.667 124.999 -47 170.999c-36 52.667 -86.667 79 -152 79s-117.333 -26 -156 -78c-34.667 -47.333 -52 -104.666 -52 -171.999c0 -72 16.333 -130.667 49 -176c36.667 -51.333 89.667 -77 159 -77
c65.333 0 116 27 152 81c31.333 46.667 47 104 47 172z" />
    <glyph glyph-name="q" unicode="q" horiz-adv-x="498" 
d="M457 -179h-19.998v324h-2c-12.667 -48.667 -37.5 -87 -74.5 -115s-80.833 -42 -131.5 -42c-70 0 -125.333 29 -166 87c-35.333 50.667 -53 112.667 -53 186c0 74 17.667 135.667 53 185c40 56.667 95.333 85 166 85c49.333 0 92.666 -14.333 129.999 -43
s62.666 -66.667 75.999 -114h2v145h20v-698zM437.002 261c0 67.333 -17.333 124.667 -52 172c-38.667 52 -90.667 78 -156 78s-116 -26.333 -152 -79c-31.333 -46 -47 -103 -47 -171s15.667 -125.333 47 -172c36 -54 86.667 -81 152 -81c69.333 0 122.333 25.667 159 77
c32.667 45.333 49 104 49 176z" />
    <glyph glyph-name="r" unicode="r" horiz-adv-x="264" 
d="M60 0h-19.999v514h20v-127h2c4.66699 18.667 12 36.667 22 54s23.333 32.5 40 45.5s36.5 23 59.5 30s49.833 10.167 80.5 9.5v-20c-35.333 2 -65.833 -2.83301 -91.5 -14.5s-46.834 -27.667 -63.501 -48s-29 -43.833 -37 -70.5s-12 -54 -12 -82v-291z" />
    <glyph glyph-name="s" unicode="s" horiz-adv-x="449" 
d="M421 132c0 -47.333 -20 -84 -60 -110c-34 -22.667 -76 -34 -126 -34c-138.667 0 -208 63.333 -208 190h20c0 -113.333 62.667 -170 188 -170c43.333 0 80.333 9.33301 111 28c36.667 22 55 53.333 55 94c0 50.667 -30.667 86.334 -92 107.001l-170 44
c-61.333 23.333 -92 63.333 -92 120c0 43.333 19 76.666 57 99.999c32 20 71 30 117 30c124 0 186 -55 186 -165h-20c0 96.667 -55.333 145 -166 145c-40 0 -74 -8 -102 -24c-34.667 -20 -52 -48.667 -52 -86c0 -49.333 30.667 -84.333 92 -105l170 -45
c61.333 -23.333 92 -63 92 -119z" />
    <glyph glyph-name="t" unicode="t" horiz-adv-x="207" 
d="M207 499h-116v-499h-20v499h-64v20h64v123l20 41v-164h116v-20z" />
    <glyph glyph-name="u" unicode="u" horiz-adv-x="468" 
d="M427 0h-19.999v128h-2c-10.667 -43.333 -32.834 -77.5 -66.501 -102.5s-73.167 -37.5 -118.5 -37.5c-56.667 0 -101.334 17 -134.001 51s-49 79.333 -49 136v344h20v-341c0 -52 14.333 -93.333 43 -124s68.667 -46 120 -46c58.667 0 105.334 22 140.001 66
c31.333 40 47 90.333 47 151v294h20v-519z" />
    <glyph glyph-name="v" unicode="v" horiz-adv-x="459" 
d="M448 519l-194 -519h-25l-212 519h24l199 -499h2l184 499h22z" />
    <glyph glyph-name="w" unicode="w" horiz-adv-x="752" 
d="M727 519l-164 -519h-26l-160 499h-2l-161 -499h-28l-160 519h20l153 -499h2l159 499h31l158 -499h2l156 499h20z" />
    <glyph glyph-name="x" unicode="x" horiz-adv-x="493" 
d="M465 0h-25l-194 254l-193 -254h-25l206 269l-187 250h26l173 -235l177 235h24l-188 -250z" />
    <glyph glyph-name="y" unicode="y" horiz-adv-x="457" 
d="M449 519l-237 -625c-12 -31.333 -29.667 -52 -53 -62c-17.333 -7.33301 -45 -11 -83 -11v20c39.333 0 68 6 86 18c16 10 29 28.333 39 55l32 91l-215 514h22l204 -492l184 492h21z" />
    <glyph glyph-name="z" unicode="z" horiz-adv-x="410" 
d="M404 0h-397v25l360 474h-333v20h354v-25l-360 -474h376v-20z" />
    <glyph glyph-name="braceleft" unicode="{" horiz-adv-x="204" 
d="M201 -179l-50 0.000976562c-28.667 0 -48.667 11.667 -60 35c-9.33301 18 -14 47 -14 87c0 13.333 0.666992 34.666 2 63.999s2 52 2 68c0 99.333 -25 165.333 -75 198v20c27.333 4.66699 46.333 23.667 57 57c8 25.333 12 63.666 12 114.999
c0 11.333 -0.333008 29 -1 53s-1 41.667 -1 53c0 53.333 4.66699 92.333 14 117c12 33.333 33.333 50 64 50h50v-20h-48c-38 0 -57 -42.333 -57 -127c0 -11.333 0.333008 -30 1 -56s1 -45.667 1 -59c0 -109.333 -24 -174.333 -72 -195
c48.667 -23.333 73 -89.666 73 -198.999c0 -13.333 -0.333008 -33 -1 -59s-1 -45 -1 -57c0 -83.333 18.667 -125 56 -125h48v-20z" />
    <glyph glyph-name="bar" unicode="|" horiz-adv-x="116" 
d="M60 -17h-20v755h20v-755z" />
    <glyph glyph-name="braceright" unicode="}" horiz-adv-x="204" 
d="M198 267c-27.333 -4.66699 -46 -23.999 -56 -57.999c-8 -25.333 -12 -63.666 -12 -114.999c0 -11.333 0.333008 -29 1 -53v-53c0 -53.333 -4.33301 -92.333 -13 -117c-12 -33.333 -33.667 -50 -65 -50h-50v20h48c22.667 0 38.334 12.333 47.001 37
c6.66699 18.667 10 49 10 91c0 11.333 -0.333008 29.833 -1 55.5s-1 45.167 -1 58.5c0 110 24 175.333 72 196c-48 23.333 -72 89.333 -72 198c0 13.333 0.333008 33.166 1 59.499s1 45.5 1 57.5c0 82.667 -19 124 -57 124h-48v20h50c29.333 0 49.666 -11.667 60.999 -35
c9.33301 -18.667 14 -48 14 -88c0 -12.667 -0.666992 -33.834 -2 -63.501s-2 -52.5 -2 -68.5c0 -98.667 24.667 -164 74 -196v-20z" />
    <glyph glyph-name="asciitilde" unicode="~" horiz-adv-x="504" 
d="M476 298c-35.333 -58 -71.666 -87 -108.999 -87c-21.333 0 -55.666 11.667 -102.999 35s-86 35 -116 35c-36.667 0 -69.334 -24.667 -98.001 -74l-20 6c30.667 58.667 70 88 118 88c28 0 67.5 -11.667 118.5 -35s84.833 -35 101.5 -35c27.333 0 56.666 24.333 87.999 73z
" />
    <glyph glyph-name="nonbreakingspace" unicode="&#xa0;" horiz-adv-x="205" 
 />
    <glyph glyph-name="exclamdown" unicode="&#xa1;" horiz-adv-x="112" 
d="M58 448h-20v99h20v-99zM58 -179h-20v543h20v-543z" />
    <glyph glyph-name="cent" unicode="&#xa2;" horiz-adv-x="465" 
d="M455 177c-6.66699 -56.667 -28.3291 -102.17 -64.9961 -136.503s-83.334 -51.833 -140.001 -52.5v-110h-20v110c-68.667 2.66699 -122.334 32.334 -161.001 89.001c-34.667 50.667 -52 112 -52 184c0 70 17.667 130.333 53 181c39.333 56 92.666 85.333 159.999 88v89h20
v-89c54 -1.33301 98.667 -16.333 134 -45c38.667 -30 60.667 -71 66 -123h-20c-6.66699 46.667 -26.334 82.834 -59.001 108.501s-73 38.834 -121 39.501v-502h5c48.667 0 89.667 16 123 48s52.333 72.333 57 121h20zM230.005 7.99707v502c-62 -2 -110.667 -29.333 -146 -82
c-31.333 -46 -47 -101.667 -47 -167c0 -66.667 15.333 -123 46 -169c35.333 -54 84.333 -82 147 -84z" />
    <glyph glyph-name="sterling" unicode="&#xa3;" horiz-adv-x="554" 
d="M534 73c-52 -60 -107.333 -90.002 -166 -90.002c-23.333 0 -56.166 8.33301 -98.499 25s-74.5 25 -96.5 25c-42.667 0 -84.334 -16.667 -125.001 -50l-18 20c78.667 68 118 137.333 118 208c0 54.667 -10.667 100.334 -32 137.001h-76v21h66l-46 87
c-16 34.667 -24 66 -24 94c0 60.667 23 108 69 142c41.333 30.667 93.666 46 156.999 46c70 0 126.333 -19 169 -57c45.333 -40 66.333 -93.667 63 -161l-2 -35h-20l1 30c2 63.333 -16.5 113 -55.5 149s-90.833 54 -155.5 54c-58 0 -105.667 -13.333 -143 -40
c-42 -30 -63 -72.667 -63 -128c0 -27.333 8.33301 -58.666 25 -93.999l48 -87h158v-21h-149c20 -36 30 -81.667 30 -137c0 -71.333 -33 -135.666 -99 -192.999l2 -2c33.333 25.333 67.333 38 102 38c22.667 0 55.334 -8.5 98.001 -25.5s75 -25.5 97 -25.5
c29.333 0 57.333 8.66699 84 26c18.667 11.333 41.667 30.666 69 57.999z" />
    <glyph glyph-name="currency" unicode="&#xa4;" horiz-adv-x="562" 
d="M529 343c0 -64.667 -22 -121 -66 -169l57 -58l-14 -14l-57 58c-48 -44.667 -104 -67 -168 -67c-64.667 0 -120.667 22.333 -168 67l-57 -58l-14 14l57 58c-44 48 -66 104.333 -66 169c0 65.333 22 122 66 170l-57 58l14 14l57 -58c47.333 44.667 103.333 67 168 67
c65.333 0 121.333 -22.333 168 -67l57 58l14 -14l-57 -58c44 -47.333 66 -104 66 -170zM509 343c0 63.333 -22.332 117.668 -66.999 163.001s-98.334 68 -161.001 68s-116.334 -22.833 -161.001 -68.5s-67 -99.834 -67 -162.501s22.333 -116.667 67 -162
s98.334 -68 161.001 -68c62 0 115.5 22.667 160.5 68s67.5 99.333 67.5 162z" />
    <glyph glyph-name="yen" unicode="&#xa5;" horiz-adv-x="536" 
d="M525 721l-237 -393h136v-20h-147v-103h147v-20h-147v-185h-20v185h-147v20h147v103h-147v20h138l-237 393h22l234 -387h2l234 387h22z" />
    <glyph glyph-name="brokenbar" unicode="&#xa6;" horiz-adv-x="95" 
d="M60 447h-20v291h20v-291zM60 -17h-20v291h20v-291z" />
    <glyph glyph-name="section" unicode="&#xa7;" horiz-adv-x="487" 
d="M465 206c0 -30.667 -11.666 -58.835 -34.999 -84.502s-50.666 -43.167 -81.999 -52.5c40 -33.333 60 -70.666 60 -111.999c0 -47.333 -15.167 -83.833 -45.5 -109.5s-69.833 -38.5 -118.5 -38.5c-58 0 -102 18.333 -132 55c-28.667 34.667 -43 81.667 -43 141h20
c0 -117.333 51.667 -176 155 -176c37.333 0 69.666 9.66699 96.999 29c30.667 22 46 50.667 46 86c0 52 -31.333 100 -94 144l-175 108c-63.333 46.667 -95 99.334 -95 158.001c0 30 11.333 58.667 34 86c20.667 25.333 45.667 43.333 75 54c-35.333 29.333 -53 66 -53 110
c0 43.333 16 77 48 101c29.333 22 66 33 110 33c53.333 0 95.666 -18 126.999 -54c29.333 -34.667 44 -79 44 -133h-20c-1.33301 51.333 -14 91.333 -38 120c-26.667 31.333 -65 47 -115 47c-38 0 -69.333 -9.66699 -94 -29c-28 -21.333 -42 -50.333 -42 -87
c0 -43.333 31.667 -85.333 95 -126l177 -108c62.667 -48 94 -102 94 -162zM445.001 206.999c0 39.333 -18.333 77.668 -55 115.001c-26.667 28 -66.667 57.667 -120 89l-120 69c-30 -9.33301 -55.333 -26.5 -76 -51.5s-31 -52.833 -31 -83.5c0 -46 37.333 -96 112 -150
l174 -112c30.667 6.66699 57.667 21.667 81 45s35 49.666 35 78.999z" />
    <glyph glyph-name="dieresis" unicode="&#xa8;" horiz-adv-x="258" 
d="M216 596h-20v82h20v-82zM60 596h-20v82h20v-82z" />
    <glyph glyph-name="copyright" unicode="&#xa9;" horiz-adv-x="802" 
d="M775 361c0 -103.333 -36.5 -192.166 -109.5 -266.499s-161.167 -111.5 -264.5 -111.5s-191.5 37.167 -264.5 111.5s-109.5 163.166 -109.5 266.499s36.5 192 109.5 266s161.167 111 264.5 111s191.5 -37 264.5 -111s109.5 -162.667 109.5 -266zM755 361
c0 98 -34.5 182 -103.5 252s-152.5 105 -250.5 105s-181.5 -35 -250.5 -105s-103.5 -154 -103.5 -252s34.5 -182.167 103.5 -252.5s152.5 -105.5 250.5 -105.5s181.5 35.167 250.5 105.5s103.5 154.5 103.5 252.5zM594 279c-10.667 -46 -31.666 -83.335 -62.999 -112.002
c-34 -30.667 -73.667 -46 -119 -46c-66 0 -119.167 22.333 -159.5 67s-60.5 100.334 -60.5 167.001c0 67.333 19.5 122.5 58.5 165.5s91.833 64.5 158.5 64.5c48.667 0 90.167 -13.667 124.5 -41s54.5 -64.666 60.5 -111.999h-20c-6 41.333 -24.5 73.833 -55.5 97.5
s-67.5 35.5 -109.5 35.5c-60.667 0 -108.667 -19.5 -144 -58.5s-53 -89.167 -53 -150.5s17.667 -112 53 -152c37.333 -42 86.333 -63 147 -63c40 0 74.667 13 104 39s48.666 59 57.999 99h20z" />
    <glyph glyph-name="ordfeminine" unicode="&#xaa;" horiz-adv-x="353" 
d="M328 378c-28 -0.666992 -44.668 4.66504 -50.001 15.998c-2.66699 4.66699 -4 23.334 -4 56.001h-2c4.66699 -24 -11.666 -44 -48.999 -60c-29.333 -12.667 -57 -19 -83 -19c-30.667 0 -56 6.33301 -76 19c-24 14.667 -36 36.667 -36 66c0 46 21.333 74.667 64 86
c2.66699 1.33301 42 5 118 11c42.667 4 64 18.667 64 44c0 54.667 -32.333 82 -97 82s-100.667 -28.333 -108 -85h-20c7.33301 70 50 105 128 105s117 -30 117 -90v-192c0 -13.333 11.333 -19.666 34 -18.999v-20zM273.999 508.999l-0.000976562 49h-2
c-8.66699 -13.333 -33 -21.333 -73 -24c-53.333 -4 -86.666 -8 -99.999 -12c-34 -10.667 -51 -32.667 -51 -66c0 -43.333 30.667 -65 92 -65c38 0 69.833 10.333 95.5 31s38.5 49.667 38.5 87z" />
    <glyph glyph-name="guillemotleft" unicode="&#xab;" horiz-adv-x="249" 
d="M209 122l-103 141v16l103 140v-35l-83 -113l83 -113v-36zM116 122l-103 141v16l103 140v-35l-83 -113l83 -113v-36z" />
    <glyph glyph-name="logicalnot" unicode="&#xac;" horiz-adv-x="545" 
d="M504 94h-20v249h-484v21h504v-270z" />
    <glyph glyph-name="minus" unicode="&#xad;" horiz-adv-x="585" 
d="M544 243h-504v20h504v-20z" />
    <glyph glyph-name="minus" unicode="&#x2212;" horiz-adv-x="585" 
d="M544 243h-504v20h504v-20z" />
    <glyph glyph-name="registered" unicode="&#xae;" horiz-adv-x="802" 
d="M775 361c0 -103.333 -36.5 -192.166 -109.5 -266.499s-161.167 -111.5 -264.5 -111.5s-191.5 37.167 -264.5 111.5s-109.5 163.166 -109.5 266.499s36.5 192 109.5 266s161.167 111 264.5 111s191.5 -37 264.5 -111s109.5 -162.667 109.5 -266zM755 361
c0 98 -34.5 182 -103.5 252s-152.5 105 -250.5 105s-181.5 -35 -250.5 -105s-103.5 -154 -103.5 -252s34.5 -182.167 103.5 -252.5s152.5 -105.5 250.5 -105.5s181.5 35.167 250.5 105.5s103.5 154.5 103.5 252.5zM578 136l-25 0.000976562l-129 202
c-7.33301 -0.666992 -50.333 -1 -129 -1v-201h-20v435h141c94.667 0 142 -39.333 142 -118c0 -33.333 -10.333 -59.833 -31 -79.5s-47.667 -30.834 -81 -33.501zM538 453.001c0 64.667 -41.333 97 -124 97h-119v-192h104c92.667 0 139 31.667 139 95z" />
    <glyph glyph-name="macron" unicode="&#xaf;" horiz-adv-x="313" 
d="M272 634h-232v20h232v-20z" />
    <glyph glyph-name="macron" unicode="&#x2c9;" horiz-adv-x="313" 
d="M272 634h-232v20h232v-20z" />
    <glyph glyph-name="degree" unicode="&#xb0;" horiz-adv-x="342" 
d="M314 554c0 -40 -13.833 -74.333 -41.5 -103s-61.5 -43 -101.5 -43c-40.667 0 -74.667 14.333 -102 43s-41 63 -41 103c0 39.333 13.833 73.333 41.5 102s61.5 43 101.5 43c39.333 0 73 -14.333 101 -43s42 -62.667 42 -102zM294 554
c0 34.667 -12.001 64.167 -36.001 88.5s-53 36.5 -87 36.5c-32.667 0 -61.334 -12.667 -86.001 -38s-37 -54.333 -37 -87c0 -34.667 11.833 -64.334 35.5 -89.001s52.834 -37 87.501 -37s63.834 12.333 87.501 37s35.5 54.334 35.5 89.001z" />
    <glyph glyph-name="plusminus" unicode="&#xb1;" horiz-adv-x="506" 
d="M505 291h-242v-200h-20v200h-242v20h242v200h20v-200h242v-20zM505 0h-504v20h504v-20z" />
    <glyph glyph-name="twosuperior" unicode="&#xb2;" horiz-adv-x="340" 
d="M328 280l-298 0.00195312c0 39.333 23 76.666 69 111.999l128 87c46 36 69 74.333 69 115c0 29.333 -12.667 51.666 -38 66.999c-20.667 12 -46.667 18 -78 18c-81.333 0 -122 -40.667 -122 -122h-20c2 94.667 49.333 142 142 142c38 0 69 -7.66699 93 -23
c28.667 -18.667 43 -46 43 -82c0 -42.667 -22 -83 -66 -121l-124 -86c-46 -32 -70.333 -61 -73 -87h275v-20z" />
    <glyph glyph-name="threesuperior" unicode="&#xb3;" horiz-adv-x="366" 
d="M335 394c0 -38 -16.001 -68.333 -48.001 -91c-28 -20 -61.667 -30 -101 -30c-49.333 0 -88 11.667 -116 35c-30.667 26 -46 63 -46 111h20c0 -84 47 -126 141 -126c34 0 63.333 8 88 24c28 18.667 42 44.334 42 77.001c0 40 -17 67.333 -51 82
c-22.667 10 -56.667 15 -102 15v21c42.667 0 74.334 4 95.001 12c33.333 13.333 50 38 50 74c0 54 -40 81 -120 81c-86.667 0 -130 -38 -130 -114h-20c0 43.333 14.667 77 44 101c26.667 22 62.334 33 107.001 33c92.667 0 139 -33.667 139 -101
c0 -28.667 -9.83301 -51.834 -29.5 -69.501s-43.834 -26.5 -72.501 -26.5v-2c32.667 -2 59 -11.667 79 -29c20.667 -19.333 31 -45 31 -77z" />
    <glyph glyph-name="acute" unicode="&#xb4;" horiz-adv-x="168" 
d="M166 738l-146 -145h-15l132 145h29z" />
    <glyph glyph-name="mu" unicode="&#xb5;" horiz-adv-x="445" 
d="M429 0h-20.001v128h-2c-10 -43.333 -31.833 -77.5 -65.5 -102.5s-73.5 -37.5 -119.5 -37.5c-79.333 0 -132.666 31.333 -159.999 94h-2v-261h-20v698h19v-341c0 -52 14.333 -93.333 43 -124s68.667 -46 120 -46c129.333 0 194 103.667 194 311
c0 28 -1.16699 64.833 -3.5 110.5s-3.5 75.5 -3.5 89.5h20v-519z" />
    <glyph glyph-name="mu" unicode="&#x3bc;" horiz-adv-x="445" 
d="M429 0h-20.001v128h-2c-10 -43.333 -31.833 -77.5 -65.5 -102.5s-73.5 -37.5 -119.5 -37.5c-79.333 0 -132.666 31.333 -159.999 94h-2v-261h-20v698h19v-341c0 -52 14.333 -93.333 43 -124s68.667 -46 120 -46c129.333 0 194 103.667 194 311
c0 28 -1.16699 64.833 -3.5 110.5s-3.5 75.5 -3.5 89.5h20v-519z" />
    <glyph glyph-name="paragraph" unicode="&#xb6;" horiz-adv-x="477" 
d="M436 -141h-19.999v842h-163v-842h-20v472c-58.667 0 -109.334 17 -152.001 51c-46.667 36.667 -70 83.667 -70 141c0 65.333 21.333 115.333 64 150c39.333 32 92.333 48 159 48h202v-862z" />
    <glyph glyph-name="periodcentered" unicode="&#xb7;" horiz-adv-x="127" 
d="M96 343c0 -21.333 -10.667 -32 -32 -32s-32 10.667 -32 32c0 22 10.667 33 32 33s32 -11 32 -33z" />
    <glyph glyph-name="periodcentered" unicode="&#x2219;" horiz-adv-x="127" 
d="M96 343c0 -21.333 -10.667 -32 -32 -32s-32 10.667 -32 32c0 22 10.667 33 32 33s32 -11 32 -33z" />
    <glyph glyph-name="cedilla" unicode="&#xb8;" horiz-adv-x="215" 
d="M194 -111c0 -49.333 -32.667 -74 -98 -74c-18.667 0 -46 5.66699 -82 17l9 20c29.333 -11.333 53.666 -17 72.999 -17c52 0 78 18 78 54c0 12 -5.83301 21.667 -17.5 29s-24.167 11 -37.5 11c-21.333 0 -39.333 -4.33301 -54 -13l-15 10l57 74h20l-41 -57
c2.66699 0.666992 8.33398 2 17.001 4c6 1.33301 11.333 2 16 2c50 0 75 -20 75 -60z" />
    <glyph glyph-name="onesuperior" unicode="&#xb9;" horiz-adv-x="181" 
d="M139 280l-20 -0.000976562v389h-2c-22.667 -33.333 -61.667 -57.666 -117 -72.999v19c43.333 14 82.333 39.667 117 77h22v-412z" />
    <glyph glyph-name="ordmasculine" unicode="&#xba;" horiz-adv-x="359" 
d="M330 536c0 -46.667 -13.334 -85.333 -40.001 -116c-28 -32.667 -65 -49 -111 -49c-45.333 0 -81.666 16 -108.999 48s-41 71 -41 117s13.833 84.667 41.5 116s64.167 47 109.5 47c46 0 83 -16 111 -48c26 -30.667 39 -69 39 -115zM309.999 536.001
c0 38.667 -12.001 72.167 -36.001 100.5s-55.333 42.5 -94 42.5c-38 0 -69.333 -14.167 -94 -42.5s-37 -61.833 -37 -100.5c0 -39.333 12.333 -73.333 37 -102s56 -43 94 -43c38.667 0 70.334 15 95.001 45c23.333 28 35 61.333 35 100z" />
    <glyph glyph-name="guillemotright" unicode="&#xbb;" horiz-adv-x="249" 
d="M236 263l-103 -141v36l83 113l-83 113v35l103 -140v-16zM143 263l-103 -141v36l83 113l-83 113v35l103 -140v-16z" />
    <glyph glyph-name="onequarter" unicode="&#xbc;" horiz-adv-x="668" 
d="M649 103h-76v-103h-20v103h-221v25l216 284h25v-289h76v-20zM561 721l-476 -755h-23l476 755h23zM159 280l-20 -0.000976562v389h-2c-22.667 -33.333 -61.667 -57.666 -117 -72.999v19c43.333 14 82.333 39.667 117 77h22v-412zM553 122.999l-2 260l-198 -260h200z" />
    <glyph glyph-name="onehalf" unicode="&#xbd;" horiz-adv-x="742" 
d="M728 0h-297.999c0 40 22.667 77.667 68 113l129 87c46 36 69 74 69 114c0 30 -12.667 52.333 -38 67c-20.667 12 -46.667 18 -78 18c-82 0 -122.667 -40.667 -122 -122h-20c1.33301 94.667 48.666 142 141.999 142c38 0 69 -7.66699 93 -23c28.667 -18.667 43 -46 43 -82
c0 -42.667 -22 -83 -66 -121l-125 -86c-45.333 -32 -69.333 -61 -72 -87h275v-20zM554.001 721l-476 -755h-23l476 755h23zM162.001 280l-20 -0.000976562v389h-2c-23.333 -33.333 -62.333 -57.666 -117 -72.999v19c43.333 14 82.333 39.667 117 77h22v-412z" />
    <glyph glyph-name="threequarters" unicode="&#xbe;" horiz-adv-x="766" 
d="M744 103h-76v-103h-20v103h-221v25l216 284h25v-289h76v-20zM662 721l-476 -755h-23l476 755h23zM331 394c0 -38 -16 -68.333 -48 -91c-28 -20 -61.667 -30 -101 -30c-49.333 0 -88.333 11.667 -117 35c-30 26 -45 63 -45 111h20c0 -84 47 -126 141 -126
c34 0 63.333 8 88 24c28 18.667 42 44.334 42 77.001c0 34 -13.333 59.667 -40 77c-22.667 14.667 -51.334 22 -86.001 22c-9.33301 0 -18.333 -0.666992 -27 -2v21c42.667 0 74.334 4 95.001 12c33.333 13.333 50 38 50 74c0 54 -40 81 -120 81
c-86.667 0 -130 -38 -130 -114h-20c0 43.333 14.667 77 44 101c26.667 22 62.334 33 107.001 33c92.667 0 139 -33.667 139 -101c0 -28.667 -9.83301 -51.834 -29.5 -69.501s-43.834 -26.5 -72.501 -26.5v-2c32.667 -2 58.667 -11.667 78 -29c21.333 -19.333 32 -45 32 -77z
M648 123l-2 260l-198 -260h200z" />
    <glyph glyph-name="questiondown" unicode="&#xbf;" horiz-adv-x="433" 
d="M228 448h-20v99h20v-99zM425 49c0 -71.333 -18.334 -128.334 -55.001 -171.001c-38.667 -46 -92.667 -69 -162 -69c-55.333 0 -101 14 -137 42c-40 30.667 -60 72.667 -60 126c0 51.333 17 96.333 51 135l94 97c34 42.667 51 94.334 51 155.001h20
c0 -64 -17 -118 -51 -162l-94 -98c-34 -38 -51 -80.333 -51 -127c0 -48 18 -85.333 54 -112c32 -24 73 -36 123 -36c64.667 0 114.334 21 149.001 63c32 38.667 48 91 48 157h20z" />
    <glyph glyph-name="Agrave" unicode="&#xc0;" horiz-adv-x="620" 
d="M363 773h-15l-139 145h29zM610 0h-22l-94 237h-364l-95 -237h-23l290 721h26zM486 258l-170 443h-2l-176 -443h348z" />
    <glyph glyph-name="Aacute" unicode="&#xc1;" horiz-adv-x="621" 
d="M416 918l-146 -145h-15l132 145h29zM608 0h-22l-94 237h-364l-95 -237h-23l290 721h26zM484 258l-170 443h-2l-176 -443h348z" />
    <glyph glyph-name="Acircumflex" unicode="&#xc2;" horiz-adv-x="625" 
d="M434 778h-20l-103 124l-99 -124h-20l113 140h15zM611 0h-22l-94 237h-364l-95 -237h-23l290 721h26zM487 258l-170 443h-2l-176 -443h348z" />
    <glyph glyph-name="Atilde" unicode="&#xc3;" horiz-adv-x="619" 
d="M442 865c0 -22 -6.16895 -40.167 -18.502 -54.5s-29.166 -21.5 -50.499 -21.5c-18 0 -40 9.83301 -66 29.5s-46.333 29.5 -61 29.5c-13.333 0 -24.666 -6.5 -33.999 -19.5s-14 -26.5 -14 -40.5h-20c0 18 6.83301 35.833 20.5 53.5s29.5 26.5 47.5 26.5
c16 0 37.833 -9.83301 65.5 -29.5s48.167 -29.5 61.5 -29.5c14.667 0 26.5 5.66699 35.5 17s13.5 24.333 13.5 39h20zM607.998 0h-22l-94 237h-364l-95 -237h-23l290 721h26zM483.998 258l-170 443h-2l-176 -443h348z" />
    <glyph glyph-name="Adieresis" unicode="&#xc4;" horiz-adv-x="619" 
d="M398 776h-20v82h20v-82zM242 776h-20v82h20v-82zM608 0h-22l-94 237h-364l-95 -237h-23l290 721h26zM484 258l-170 443h-2l-176 -443h348z" />
    <glyph glyph-name="Aring" unicode="&#xc5;" horiz-adv-x="629" 
d="M403 833c0 -24 -8.66699 -44.833 -26 -62.5s-38 -26.5 -62 -26.5s-44.667 8.83301 -62 26.5s-26 38.5 -26 62.5c0 23.333 8.83301 44 26.5 62s38.167 27 61.5 27s43.833 -9 61.5 -27s26.5 -38.667 26.5 -62zM613 0h-22l-94 237h-364l-95 -237h-23l290 721h26zM383 833
c0 18.667 -6.66699 34.834 -20 48.501s-29.333 20.5 -48 20.5s-34.667 -6.83301 -48 -20.5s-20 -29.834 -20 -48.501s6.66699 -34.834 20 -48.501s29.333 -20.5 48 -20.5s34.667 6.83301 48 20.5s20 29.834 20 48.501zM489 258l-170 443h-2l-176 -443h348z" />
    <glyph glyph-name="AE" unicode="&#xc6;" horiz-adv-x="868" 
d="M862 0h-412v277h-268l-145 -277h-22l378 721h469v-20h-392v-315h360v-20h-360v-346h392v-20zM450 297v406h-47l-211 -406h258z" />
    <glyph glyph-name="Ccedilla" unicode="&#xc7;" horiz-adv-x="674" 
d="M657 283c-12 -88.667 -44.001 -159.665 -96.001 -212.998c-54.667 -56.667 -125.334 -85.667 -212.001 -87l-29 -40c2.66699 0.666992 8.33398 2 17.001 4c6 1.33301 11.333 2 16 2c50 0 75 -20 75 -60c0 -49.333 -32.667 -74 -98 -74c-18.667 0 -46 5.66699 -82 17l9 20
c29.333 -11.333 53.666 -17 72.999 -17c52 0 78 18 78 54c0 12 -5.83301 21.667 -17.5 29s-24.167 11 -37.5 11c-21.333 0 -39.333 -4.33301 -54 -13l-15 10l45 57c-96 4 -172.333 43.667 -229 119c-53.333 69.333 -80 153.666 -80 252.999
c0 107.333 28.667 196.666 86 267.999c62 76.667 145.333 115 250 115c70 0 133 -21 189 -63c61.333 -46 93.333 -102.667 96 -170h-20c-5.33301 63.333 -35.333 115.333 -90 156c-51.333 38 -109.666 57 -174.999 57c-98 0 -176 -36.667 -234 -110
c-54.667 -68 -82 -152.333 -82 -253c0 -96 26.333 -177 79 -243c56.667 -72.667 131.334 -109 224.001 -109c82.667 0 150.334 26.667 203.001 80c49.333 50 79.666 116.667 90.999 200h20z" />
    <glyph glyph-name="Egrave" unicode="&#xc8;" horiz-adv-x="508" 
d="M296 773h-15l-139 145h29zM508 0h-478v721h474v-20h-454v-315h427v-20h-427v-346h458v-20z" />
    <glyph glyph-name="Eacute" unicode="&#xc9;" horiz-adv-x="506" 
d="M349 918l-146 -145h-15l132 145h29zM506 0h-478v721h474v-20h-454v-315h427v-20h-427v-346h458v-20z" />
    <glyph glyph-name="Ecircumflex" unicode="&#xca;" horiz-adv-x="509" 
d="M367 778h-20l-103 124l-99 -124h-20l113 140h15zM509 0h-478v721h474v-20h-454v-315h427v-20h-427v-346h458v-20z" />
    <glyph glyph-name="Edieresis" unicode="&#xcb;" horiz-adv-x="510" 
d="M335 776h-20v82h20v-82zM179 776h-20v82h20v-82zM510 0h-478v721h474v-20h-454v-315h427v-20h-427v-346h458v-20z" />
    <glyph glyph-name="Igrave" unicode="&#xcc;" horiz-adv-x="164" 
d="M154 773h-15l-139 145h29zM113 0h-20v721h20v-721z" />
    <glyph glyph-name="Iacute" unicode="&#xcd;" horiz-adv-x="170" 
d="M170 918l-146 -145h-15l132 145h29zM74 0h-20v721h20v-721z" />
    <glyph glyph-name="Icircumflex" unicode="&#xce;" horiz-adv-x="252" 
d="M247 778h-20l-103 124l-99 -124h-20l113 140h15zM136 0h-20v721h20v-721z" />
    <glyph glyph-name="Idieresis" unicode="&#xcf;" horiz-adv-x="184" 
d="M180 776h-20v82h20v-82zM24 776h-20v82h20v-82zM102 0h-20v721h20v-721z" />
    <glyph glyph-name="Eth" unicode="&#xd0;" horiz-adv-x="674" 
d="M645 361c0 -108.667 -28.334 -195.333 -85.001 -260c-60 -67.333 -143.333 -101 -250 -101h-219v366h-64v20h64v335h250c102.667 0 180.334 -35 233.001 -105c47.333 -63.333 71 -148.333 71 -255zM624.999 361.001c0 104 -21.999 185 -65.999 243
c-48.667 64.667 -123 97 -223 97h-225v-315h297v-20h-297v-346h204c99.333 0 176.666 32.667 231.999 98c52 61.333 78 142.333 78 243z" />
    <glyph glyph-name="Ntilde" unicode="&#xd1;" horiz-adv-x="602" 
d="M433 865c0 -22 -6.16895 -40.167 -18.502 -54.5s-29.166 -21.5 -50.499 -21.5c-18 0 -40 9.83301 -66 29.5s-46.333 29.5 -61 29.5c-13.333 0 -24.666 -6.5 -33.999 -19.5s-14 -26.5 -14 -40.5h-20c0 18 6.83301 35.833 20.5 53.5s29.5 26.5 47.5 26.5
c16 0 37.833 -9.83301 65.5 -29.5s48.167 -29.5 61.5 -29.5c14.667 0 26.5 5.66699 35.5 17s13.5 24.333 13.5 39h20zM570.998 0h-30l-488 696h-2v-696h-20v721h30l488 -696h2v696h20v-721z" />
    <glyph glyph-name="Ograve" unicode="&#xd2;" horiz-adv-x="698" 
d="M401 773h-15l-139 145h29zM679 361c0 -106 -27.667 -194 -83 -264c-60.667 -76 -142.667 -114 -246 -114s-185.333 38 -246 114c-55.333 70 -83 158 -83 264s28 194 84 264c60 75.333 141.667 113 245 113s185.333 -37.667 246 -113c55.333 -70 83 -158 83 -264zM659 361
c0 100.667 -25.667 184 -77 250c-56.667 71.333 -134 107 -232 107s-175 -35.667 -231 -107c-52 -66 -78 -149.333 -78 -250s26 -184 78 -250c56 -72 133 -108 231 -108s175.333 36 232 108c51.333 66 77 149.333 77 250z" />
    <glyph glyph-name="Oacute" unicode="&#xd3;" horiz-adv-x="698" 
d="M454 918l-146 -145h-15l132 145h29zM677 361c0 -106 -27.667 -194 -83 -264c-60.667 -76 -142.667 -114 -246 -114s-185.333 38 -246 114c-55.333 70 -83 158 -83 264s27.667 194 83 264c60.667 75.333 142.667 113 246 113s185.333 -37.667 246 -113
c55.333 -70 83 -158 83 -264zM657 361c0 100.667 -25.667 184 -77 250c-56.667 71.333 -134 107 -232 107s-175.333 -35.667 -232 -107c-51.333 -66 -77 -149.333 -77 -250s25.667 -184 77 -250c56.667 -72 134 -108 232 -108s175.333 36 232 108
c51.333 66 77 149.333 77 250z" />
    <glyph glyph-name="Ocircumflex" unicode="&#xd4;" horiz-adv-x="700" 
d="M471 778h-20l-103 124l-99 -124h-20l113 140h15zM679 361c0 -106 -27.667 -194 -83 -264c-60.667 -76 -142.667 -114 -246 -114s-185.333 38 -246 114c-55.333 70 -83 158 -83 264s27.667 194 83 264c60.667 75.333 142.667 113 246 113s185.333 -37.667 246 -113
c55.333 -70 83 -158 83 -264zM659 361c0 100.667 -25.667 184 -77 250c-56.667 71.333 -134 107 -232 107s-175.333 -35.667 -232 -107c-51.333 -66 -77 -149.333 -77 -250s25.667 -184 77 -250c56.667 -72 134 -108 232 -108s175.333 36 232 108
c51.333 66 77 149.333 77 250z" />
    <glyph glyph-name="Otilde" unicode="&#xd5;" horiz-adv-x="704" 
d="M484 865c0 -22 -6.16992 -40.167 -18.5029 -54.5s-29.166 -21.5 -50.499 -21.5c-17.333 0 -39.166 9.83301 -65.499 29.5s-46.833 29.5 -61.5 29.5c-13.333 0 -24.666 -6.5 -33.999 -19.5s-14 -26.5 -14 -40.5h-20c0 18 6.83301 35.833 20.5 53.5s29.5 26.5 47.5 26.5
c16 0 38 -9.83301 66 -29.5s48.333 -29.5 61 -29.5c14.667 0 26.5 5.66699 35.5 17s13.5 24.333 13.5 39h20zM680.997 361c0 -106 -27.667 -194 -83 -264c-60.667 -76 -142.667 -114 -246 -114s-185.333 38 -246 114c-55.333 70 -83 158 -83 264s27.667 194 83 264
c60.667 75.333 142.667 113 246 113s185.333 -37.667 246 -113c55.333 -70 83 -158 83 -264zM660.997 361c0 100.667 -25.667 184 -77 250c-56.667 71.333 -134 107 -232 107s-175.333 -35.667 -232 -107c-51.333 -66 -77 -149.333 -77 -250s25.667 -184 77 -250
c56.667 -72 134 -108 232 -108s175.333 36 232 108c51.333 66 77 149.333 77 250z" />
    <glyph glyph-name="Odieresis" unicode="&#xd6;" horiz-adv-x="704" 
d="M440 776h-20v82h20v-82zM284 776h-20v82h20v-82zM681 361c0 -106 -27.667 -194 -83 -264c-60.667 -76 -142.667 -114 -246 -114s-185.333 38 -246 114c-55.333 70 -83 158 -83 264s28 194 84 264c60 75.333 141.667 113 245 113s185.333 -37.667 246 -113
c55.333 -70 83 -158 83 -264zM661 361c0 100.667 -25.667 184 -77 250c-56.667 71.333 -134 107 -232 107s-175 -35.667 -231 -107c-52 -66 -78 -149.333 -78 -250s26 -184 78 -250c56 -72 133 -108 231 -108s175.333 36 232 108c51.333 66 77 149.333 77 250z" />
    <glyph glyph-name="multiply" unicode="&#xd7;" horiz-adv-x="476" 
d="M442 64l-14 -15l-191 193l-189 -193l-14 15l190 192l-190 191l14 14l189 -193l191 193l14 -14l-191 -191z" />
    <glyph glyph-name="Oslash" unicode="&#xd8;" horiz-adv-x="719" 
d="M689 361c0 -106 -28 -193.999 -84 -263.999c-60 -76 -141.667 -114 -245 -114c-98.667 0 -177 34 -235 102l-71 -80l-15 12l73 82c-54 69.333 -81 156.666 -81 261.999c0 106 27.667 194 83 264c60.667 75.333 142.667 113 246 113c96.667 0 174.667 -33.333 234 -100
l59 66l15 -12l-61 -69c54.667 -68 82 -155.333 82 -262zM580 623.001c-56 63.333 -129.333 95 -220 95c-98 0 -175.333 -35.667 -232 -107c-51.333 -66 -77 -149.333 -77 -250c0 -99.333 25 -181.333 75 -246zM669 361.001c0 100 -25.333 182 -76 246l-454 -507
c54 -64.667 127.667 -97 221 -97c98 0 175 36 231 108c52 66 78 149.333 78 250z" />
    <glyph glyph-name="Ugrave" unicode="&#xd9;" horiz-adv-x="574" 
d="M339 773h-15l-139 145h29zM550 269c0 -90 -21 -159.333 -63 -208c-44.667 -52 -111 -78 -199 -78s-154.333 26 -199 78c-42 48.667 -63 118 -63 208v452h20v-452c0 -177.333 80.667 -266 242 -266s242 88.667 242 266v452h20v-452z" />
    <glyph glyph-name="Uacute" unicode="&#xda;" horiz-adv-x="575" 
d="M392 918l-146 -145h-15l132 145h29zM548 269c0 -90 -21 -159.333 -63 -208c-44.667 -52 -111 -78 -199 -78s-154.333 26 -199 78c-42 48.667 -63 118 -63 208v452h20v-452c0 -177.333 80.667 -266 242 -266s242 88.667 242 266v452h20v-452z" />
    <glyph glyph-name="Ucircumflex" unicode="&#xdb;" horiz-adv-x="578" 
d="M410 778h-20l-103 124l-99 -124h-20l113 140h15zM551 269c0 -90 -21 -159.333 -63 -208c-44.667 -52 -111 -78 -199 -78s-154.333 26 -199 78c-42 48.667 -63 118 -63 208v452h20v-452c0 -177.333 80.667 -266 242 -266s242 88.667 242 266v452h20v-452z" />
    <glyph glyph-name="Udieresis" unicode="&#xdc;" horiz-adv-x="582" 
d="M379 776h-20v82h20v-82zM223 776h-20v82h20v-82zM553 269c0 -90 -21 -159.333 -63 -208c-44.667 -52 -111 -78 -199 -78s-154.333 26 -199 78c-42 48.667 -63 118 -63 208v452h20v-452c0 -177.333 80.667 -266 242 -266s242 88.667 242 266v452h20v-452z" />
    <glyph glyph-name="Yacute" unicode="&#xdd;" horiz-adv-x="606" 
d="M409 940l-146 -145h-15l132 145h29zM602 721l-289 -417v-304h-20v304l-289 417h25l274 -396l275 396h24z" />
    <glyph glyph-name="Thorn" unicode="&#xde;" horiz-adv-x="547" 
d="M546 399c0 -78.667 -32.333 -134 -97 -166c-48 -23.333 -117.667 -35 -209 -35c-23.333 0 -55.5 0.833008 -96.5 2.5s-68.833 2.5 -83.5 2.5v-203h-20v721h20v-125c16.667 0 47.5 1.16699 92.5 3.5s79.833 3.5 104.5 3.5c88 0 154.333 -12 199 -36
c60 -32.667 90 -88.667 90 -168zM526 399c0 118 -65.667 177 -197 177h-269v-353h269c56 0 102.833 15.5 140.5 46.5s56.5 74.167 56.5 129.5z" />
    <glyph glyph-name="germandbls" unicode="&#xdf;" horiz-adv-x="461" 
d="M435 212c0 -79.333 -22.667 -135.666 -68 -168.999c-39.333 -28.667 -100 -43 -182 -43v20l26 -1c136 -5.33301 204 59 204 193c0 69.333 -22.333 118 -67 146c-34.667 22 -89 33 -163 33v20c128.667 0 193 52 193 156c0 44.667 -16.667 80.667 -50 108
c-30.667 25.333 -68.667 38 -114 38c-49.333 0 -87.666 -13.167 -114.999 -39.5s-41 -64.5 -41 -114.5v-559h-20v562c0 54 15.833 96 47.5 126s74.5 45 128.5 45c50 0 92.667 -14.667 128 -44c37.333 -32 56 -72.667 56 -122c0 -42.667 -10.667 -78.334 -32 -107.001
c-22.667 -30.667 -54.334 -49.334 -95.001 -56.001v-2c109.333 -9.33301 164 -72.666 164 -189.999z" />
    <glyph glyph-name="agrave" unicode="&#xe0;" 
d="M472 142c-6 -18.667 -18.999 -42.001 -38.999 -70.001c-42.667 -56 -100.334 -84 -173.001 -84c-72 0 -129.667 28 -173 84c-38.667 50.667 -58 113.334 -58 188.001c0 74 19.667 136.667 59 188c43.333 55.333 101 83 173 83s129.333 -28 172 -84
c16.667 -21.333 29.667 -44.333 39 -69v141h20v-519h-20v142zM472.001 259.999c0 68 -17.668 125.668 -53.001 173.001c-39.333 52 -92 78 -158 78s-118.667 -26 -158 -78c-36 -46.667 -54 -104.334 -54 -173.001c0 -69.333 17.667 -127.333 53 -174
c39.333 -52 92.333 -78 159 -78s119.334 26 158.001 78c35.333 47.333 53 105.333 53 174zM343 593h-15l-139 145h29z" />
    <glyph glyph-name="aacute" unicode="&#xe1;" 
d="M472 142c-6 -18.667 -18.999 -42.001 -38.999 -70.001c-42.667 -56 -100.334 -84 -173.001 -84c-72 0 -129.667 28 -173 84c-38.667 50.667 -58 113.334 -58 188.001c0 74 19.667 136.667 59 188c43.333 55.333 101 83 173 83s129.333 -28 172 -84
c16.667 -21.333 29.667 -44.333 39 -69v141h20v-519h-20v142zM472.001 259.999c0 68 -17.668 125.668 -53.001 173.001c-39.333 52 -92 78 -158 78s-118.667 -26 -158 -78c-36 -46.667 -54 -104.334 -54 -173.001c0 -69.333 17.667 -127.333 53 -174
c39.333 -52 92.333 -78 159 -78s119.334 26 158.001 78c35.333 47.333 53 105.333 53 174zM346 738l-146 -145h-15l132 145h29z" />
    <glyph glyph-name="acircumflex" unicode="&#xe2;" 
d="M472 142c-6 -18.667 -18.999 -42.001 -38.999 -70.001c-42.667 -56 -100.334 -84 -173.001 -84c-72 0 -129.667 28 -173 84c-38.667 50.667 -58 113.334 -58 188.001c0 74 19.667 136.667 59 188c43.333 55.333 101 83 173 83s129.333 -28 172 -84
c16.667 -21.333 29.667 -44.333 39 -69v141h20v-519h-20v142zM472.001 259.999c0 68 -17.668 125.668 -53.001 173.001c-39.333 52 -92 78 -158 78s-118.667 -26 -158 -78c-36 -46.667 -54 -104.334 -54 -173.001c0 -69.333 17.667 -127.333 53 -174
c39.333 -52 92.333 -78 159 -78s119.334 26 158.001 78c35.333 47.333 53 105.333 53 174zM387 598h-20l-103 124l-99 -124h-20l113 140h15z" />
    <glyph glyph-name="atilde" unicode="&#xe3;" 
d="M472 142c-6 -18.667 -18.999 -42.001 -38.999 -70.001c-42.667 -56 -100.334 -84 -173.001 -84c-72 0 -129.667 28 -173 84c-38.667 50.667 -58 113.334 -58 188.001c0 74 19.667 136.667 59 188c43.333 55.333 101 83 173 83s129.333 -28 172 -84
c16.667 -21.333 29.667 -44.333 39 -69v141h20v-519h-20v142zM472.001 259.999c0 68 -17.668 125.668 -53.001 173.001c-39.333 52 -92 78 -158 78s-118.667 -26 -158 -78c-36 -46.667 -54 -104.334 -54 -173.001c0 -69.333 17.667 -127.333 53 -174
c39.333 -52 92.333 -78 159 -78s119.334 26 158.001 78c35.333 47.333 53 105.333 53 174zM398 685c0 -22 -6.00293 -40.167 -18.0029 -54.5s-29 -21.5 -51 -21.5c-17.333 0 -39.166 9.83301 -65.499 29.5s-46.833 29.5 -61.5 29.5c-12.667 0 -23.667 -6.5 -33 -19.5
s-14.333 -26.5 -15 -40.5h-20c0 18 7 35.833 21 53.5s29.667 26.5 47 26.5c16.667 0 38.834 -9.83301 66.501 -29.5s47.834 -29.5 60.501 -29.5c14.667 0 26.5 5.66699 35.5 17s13.5 24.333 13.5 39h20z" />
    <glyph glyph-name="adieresis" unicode="&#xe4;" 
d="M472 142c-6 -18.667 -18.999 -42.001 -38.999 -70.001c-42.667 -56 -100.334 -84 -173.001 -84c-72 0 -129.667 28 -173 84c-38.667 50.667 -58 113.334 -58 188.001c0 74 19.667 136.667 59 188c43.333 55.333 101 83 173 83s129.333 -28 172 -84
c16.667 -21.333 29.667 -44.333 39 -69v141h20v-519h-20v142zM472.001 259.999c0 68 -17.668 125.668 -53.001 173.001c-39.333 52 -92 78 -158 78s-118.667 -26 -158 -78c-36 -46.667 -54 -104.334 -54 -173.001c0 -69.333 17.667 -127.333 53 -174
c39.333 -52 92.333 -78 159 -78s119.334 26 158.001 78c35.333 47.333 53 105.333 53 174zM354 596h-20v82h20v-82zM198 596h-20v82h20v-82z" />
    <glyph glyph-name="aring" unicode="&#xe5;" 
d="M472 142c-6 -18.667 -18.999 -42.001 -38.999 -70.001c-42.667 -56 -100.334 -84 -173.001 -84c-72 0 -129.667 28 -173 84c-38.667 50.667 -58 113.334 -58 188.001c0 74 19.667 136.667 59 188c43.333 55.333 101 83 173 83s129.333 -28 172 -84
c16.667 -21.333 29.667 -44.333 39 -69v141h20v-519h-20v142zM472.001 259.999c0 68 -17.668 125.668 -53.001 173.001c-39.333 52 -92 78 -158 78s-118.667 -26 -158 -78c-36 -46.667 -54 -104.334 -54 -173.001c0 -69.333 17.667 -127.333 53 -174
c39.333 -52 92.333 -78 159 -78s119.334 26 158.001 78c35.333 47.333 53 105.333 53 174zM354 674c0 -24 -8.66699 -44.667 -26 -62s-38 -26 -62 -26c-23.333 0 -43.833 8.83301 -61.5 26.5s-26.5 38.167 -26.5 61.5s8.83301 43.833 26.5 61.5s38.167 26.5 61.5 26.5
s43.833 -8.83301 61.5 -26.5s26.5 -38.167 26.5 -61.5zM334 674c0 18.667 -6.66699 34.667 -20 48s-29.333 20 -48 20c-18 0 -33.833 -6.66699 -47.5 -20s-20.5 -29.333 -20.5 -48s6.83301 -34.667 20.5 -48s29.5 -20 47.5 -20c18.667 0 34.667 6.66699 48 20
s20 29.333 20 48z" />
    <glyph glyph-name="ae" unicode="&#xe6;" horiz-adv-x="971" 
d="M497 348c7.33301 18 14.833 35.501 22.5 52.501s16.167 31.833 25.5 44.5c42.667 57.333 98.667 86 168 86c74.667 0 132 -28 172 -84c35.333 -49.333 53 -113 53 -191h-430c0.666992 -73.333 16 -131.333 46 -174c34.667 -49.333 87 -74 157 -74
c54.667 0 99.834 15.167 135.501 45.5s57.5 72.5 65.5 126.5h20c-6.66699 -58.667 -30 -105.334 -70 -140.001s-89.667 -52 -149 -52c-76.667 0 -134.667 27 -174 81c-19.333 27.333 -33.333 59.666 -42 96.999v-166h-20v142c-6 -18.667 -19 -42 -39 -70
c-42.667 -56 -100.334 -84 -173.001 -84c-72 0 -129.667 28 -173 84c-38.667 50.667 -58 113.334 -58 188.001c0 74 19.667 136.667 59 188c43.333 55.333 101 83 173 83s129.333 -28 172 -84c16.667 -21.333 29.667 -44.333 39 -69v141h20v-171zM918 276.001
c0 66 -17 120.667 -51 164c-37.333 47.333 -88 71 -152 71c-62 0 -112.333 -24.333 -151 -73c-34 -43.333 -52.667 -97.333 -56 -162h410zM477 260.001c0 68 -17.668 125.668 -53.001 173.001c-39.333 52 -92 78 -158 78s-118.667 -26 -158 -78
c-36 -46.667 -54 -104.334 -54 -173.001c0 -69.333 17.667 -127.333 53 -174c39.333 -52 92.333 -78 159 -78s119.334 26 158.001 78c35.333 47.333 53 105.333 53 174z" />
    <glyph glyph-name="ccedilla" unicode="&#xe7;" horiz-adv-x="476" 
d="M457 177c-5.33301 -56.667 -26.501 -101.999 -63.501 -135.999s-83.833 -51.667 -140.5 -53l-33 -45c2.66699 0.666992 8.33398 2 17.001 4c6 1.33301 11.333 2 16 2c50 0 75 -20 75 -60c0 -49.333 -32.667 -74 -98 -74c-18.667 0 -46 5.66699 -82 17l9 20
c29.333 -11.333 53.666 -17 72.999 -17c52 0 78 18 78 54c0 12 -5.83301 21.667 -17.5 29s-24.167 11 -37.5 11c-21.333 0 -39.333 -4.33301 -54 -13l-15 10l48 62c-66 4 -118.667 31.667 -158 83c-36.667 48 -55 107 -55 177c0 80.667 19.667 146.667 59 198
c42.667 56.667 103 85 181 85c52 0 95.833 -15.333 131.5 -46s56.5 -71.667 62.5 -123h-20c-7.33301 46 -26.5 82.333 -57.5 109s-69.833 40 -116.5 40c-72 0 -127.667 -26.667 -167 -80c-35.333 -47.333 -53 -108.333 -53 -183c0 -66.667 17.667 -122.334 53 -167.001
c38.667 -48.667 90.334 -73 155.001 -73c51.333 0 95 15.5 131 46.5s55.667 71.833 59 122.5h20z" />
    <glyph glyph-name="egrave" unicode="&#xe8;" horiz-adv-x="486" 
d="M297 571h-15l-139 145h29zM471 256l-430.001 0.000976562c0.666992 -73.333 16 -131.333 46 -174c34.667 -49.333 87 -74 157 -74c54.667 0 99.834 15.167 135.501 45.5s57.5 72.5 65.5 126.5h20c-6.66699 -58.667 -30.167 -105.334 -70.5 -140.001
s-89.833 -52 -148.5 -52c-77.333 0 -135.333 27 -174 81c-34 47.333 -51 111 -51 191c0 72 19 133.667 57 185c42 57.333 98 86 168 86c74.667 0 132 -28 172 -84c35.333 -49.333 53 -113 53 -191zM450.999 276.001c0 66 -16.999 120.667 -50.999 164
c-37.333 47.333 -88 71 -152 71c-62 0 -112.333 -24.333 -151 -73c-34.667 -43.333 -53.334 -97.333 -56.001 -162h410z" />
    <glyph glyph-name="eacute" unicode="&#xe9;" horiz-adv-x="486" 
d="M348 716l-146 -145h-15l132 145h29zM467 256l-430.001 0.000976562c0.666992 -73.333 16 -131.333 46 -174c34.667 -49.333 87 -74 157 -74c54.667 0 99.834 15.167 135.501 45.5s57.5 72.5 65.5 126.5h20c-6.66699 -58.667 -30.167 -105.334 -70.5 -140.001
s-89.833 -52 -148.5 -52c-77.333 0 -135.333 27 -174 81c-34 47.333 -51 111 -51 191c0 72 19 133.667 57 185c42 57.333 98 86 168 86c74.667 0 132 -28 172 -84c35.333 -49.333 53 -113 53 -191zM446.999 276.001c0 66 -16.999 120.667 -50.999 164
c-37.333 47.333 -88 71 -152 71c-62 0 -112.333 -24.333 -151 -73c-34.667 -43.333 -53.334 -97.333 -56.001 -162h410z" />
    <glyph glyph-name="ecircumflex" unicode="&#xea;" horiz-adv-x="491" 
d="M368 576h-20l-103 124l-99 -124h-20l113 140h15zM472 256l-430.001 0.000976562c0.666992 -73.333 16 -131.333 46 -174c34.667 -49.333 87 -74 157 -74c54.667 0 99.834 15.167 135.501 45.5s57.5 72.5 65.5 126.5h20c-6.66699 -58.667 -30.167 -105.334 -70.5 -140.001
s-89.833 -52 -148.5 -52c-77.333 0 -135.333 27 -174 81c-34 47.333 -51 111 -51 191c0 72 19 133.667 57 185c42 57.333 98 86 168 86c74.667 0 132 -28 172 -84c35.333 -49.333 53 -113 53 -191zM451.999 276.001c0 66 -16.999 120.667 -50.999 164
c-37.333 47.333 -88 71 -152 71c-62 0 -112.333 -24.333 -151 -73c-34.667 -43.333 -53.334 -97.333 -56.001 -162h410z" />
    <glyph glyph-name="edieresis" unicode="&#xeb;" horiz-adv-x="493" 
d="M336 574h-20v82h20v-82zM180 574h-20v82h20v-82zM473 256l-430.001 0.000976562c0.666992 -73.333 16 -131.333 46 -174c34.667 -49.333 87 -74 157 -74c54.667 0 99.834 15.167 135.501 45.5s57.5 72.5 65.5 126.5h20c-6.66699 -58.667 -30.167 -105.334 -70.5 -140.001
s-89.833 -52 -148.5 -52c-77.333 0 -135.333 27 -174 81c-34 47.333 -51 111 -51 191c0 72 19 133.667 57 185c42 57.333 98 86 168 86c74.667 0 132 -28 172 -84c35.333 -49.333 53 -113 53 -191zM452.999 276.001c0 66 -16.999 120.667 -50.999 164
c-37.333 47.333 -88 71 -152 71c-62 0 -112.333 -24.333 -151 -73c-34.667 -43.333 -53.334 -97.333 -56.001 -162h410z" />
    <glyph glyph-name="igrave" unicode="&#xec;" horiz-adv-x="164" 
d="M155 571h-15l-139 145h29zM114 0h-20v519h20v-519z" />
    <glyph glyph-name="iacute" unicode="&#xed;" horiz-adv-x="170" 
d="M169 716l-146 -145h-15l132 145h29zM73 0h-20v519h20v-519z" />
    <glyph glyph-name="icircumflex" unicode="&#xee;" horiz-adv-x="253" 
d="M247 576h-20l-103 124l-99 -124h-20l113 140h15zM136 0h-20v519h20v-519z" />
    <glyph glyph-name="idieresis" unicode="&#xef;" horiz-adv-x="192" 
d="M184 574h-20v82h20v-82zM28 574h-20v82h20v-82zM106 0h-20v519h20v-519z" />
    <glyph glyph-name="eth" unicode="&#xf0;" horiz-adv-x="506" 
d="M483 250c0 -72.667 -19.999 -133.668 -59.999 -183.001c-43.333 -52 -100.666 -78 -171.999 -78c-70.667 0 -127.667 26.333 -171 79c-40 48.667 -60 109.334 -60 182.001s20 133.667 60 183c43.333 52.667 100.666 79 171.999 79c72.667 0 126.667 -24.333 162 -73h4
c-36.667 73.333 -90.334 140.333 -161.001 201l-122 -68l-15 15l121 67c-27.333 22.667 -58.333 43 -93 61l16 14c35.333 -18.667 67.333 -40 96 -64l123 68l15 -16l-120 -68c136.667 -126.667 205 -259.667 205 -399zM463.001 249.999c0 66.667 -18 122.666 -54 167.999
c-39.333 49.333 -91.666 74 -156.999 74s-117.666 -24.333 -156.999 -73c-36.667 -45.333 -55 -101.666 -55 -168.999s18.333 -123.333 55 -168c39.333 -48.667 91.666 -73 156.999 -73s117.666 24.333 156.999 73c36 45.333 54 101.333 54 168z" />
    <glyph glyph-name="ntilde" unicode="&#xf1;" horiz-adv-x="452" 
d="M359 663c0 -22 -6.16992 -40.167 -18.5029 -54.5s-29.166 -21.5 -50.499 -21.5c-17.333 0 -39.166 9.83301 -65.499 29.5s-46.833 29.5 -61.5 29.5c-13.333 0 -24.666 -6.5 -33.999 -19.5s-14 -26.5 -14 -40.5h-20c0 18 6.83301 35.833 20.5 53.5s29.5 26.5 47.5 26.5
c16 0 38 -9.83301 66 -29.5s48.333 -29.5 61 -29.5c14.667 0 26.5 5.66699 35.5 17s13.5 24.333 13.5 39h20zM421.997 0h-20.001v341c0 52 -14.333 93.333 -43 124s-68.667 46 -120 46c-58.667 0 -105.334 -22 -140.001 -66c-31.333 -40 -47 -90.333 -47 -151v-294h-20v519
h20v-128h2c10.667 43.333 32.834 77.5 66.501 102.5s73.167 37.5 118.5 37.5c56.667 0 101.334 -17 134.001 -51s49 -79.333 49 -136v-344z" />
    <glyph glyph-name="ograve" unicode="&#xf2;" horiz-adv-x="500" 
d="M303 571h-15l-139 145h29zM483 260c0 -74.667 -19.666 -137.334 -58.999 -188.001c-42.667 -56 -100.334 -84 -173.001 -84c-72 0 -129.667 28 -173 84c-38.667 50.667 -58 113.334 -58 188.001c0 74 19.667 136.667 59 188c43.333 55.333 101 83 173 83
s129.333 -28 172 -84c39.333 -50.667 59 -113 59 -187zM463.001 260c0 68 -17.668 125.668 -53.001 173.001c-39.333 52 -92 78 -158 78s-118.667 -26 -158 -78c-36 -46.667 -54 -104.334 -54 -173.001c0 -69.333 17.667 -127.333 53 -174c39.333 -52 92.333 -78 159 -78
s119.334 26 158.001 78c35.333 47.333 53 105.333 53 174z" />
    <glyph glyph-name="oacute" unicode="&#xf3;" horiz-adv-x="500" 
d="M355 716l-146 -145h-15l132 145h29zM480 260c0 -74.667 -19.666 -137.334 -58.999 -188.001c-42.667 -56 -100.334 -84 -173.001 -84c-72 0 -129.667 28 -173 84c-38.667 50.667 -58 113.334 -58 188.001c0 74 19.667 136.667 59 188c43.333 55.333 101 83 173 83
s129.333 -28 172 -84c39.333 -50.667 59 -113 59 -187zM460.001 260c0 68 -17.668 125.668 -53.001 173.001c-39.333 52 -92 78 -158 78s-118.667 -26 -158 -78c-36 -46.667 -54 -104.334 -54 -173.001c0 -69.333 17.667 -127.333 53 -174c39.333 -52 92.333 -78 159 -78
s119.334 26 158.001 78c35.333 47.333 53 105.333 53 174z" />
    <glyph glyph-name="ocircumflex" unicode="&#xf4;" horiz-adv-x="505" 
d="M374 576h-20l-103 124l-99 -124h-20l113 140h15zM484 260c0 -74.667 -19.666 -137.334 -58.999 -188.001c-42.667 -56 -100.334 -84 -173.001 -84c-72 0 -129.667 28 -173 84c-38.667 50.667 -58 113.334 -58 188.001c0 74 19.667 136.667 59 188
c43.333 55.333 101 83 173 83s129.333 -28 172 -84c39.333 -50.667 59 -113 59 -187zM464.001 260c0 68 -17.668 125.668 -53.001 173.001c-39.333 52 -92 78 -158 78s-118.667 -26 -158 -78c-36 -46.667 -54 -104.334 -54 -173.001c0 -69.333 17.667 -127.333 53 -174
c39.333 -52 92.333 -78 159 -78s119.334 26 158.001 78c35.333 47.333 53 105.333 53 174z" />
    <glyph glyph-name="otilde" unicode="&#xf5;" horiz-adv-x="509" 
d="M387 663c0 -22 -6.16992 -40.167 -18.5029 -54.5s-29.166 -21.5 -50.499 -21.5c-17.333 0 -39.166 9.83301 -65.499 29.5s-46.833 29.5 -61.5 29.5c-13.333 0 -24.666 -6.5 -33.999 -19.5s-14 -26.5 -14 -40.5h-20c0 18 6.83301 35.833 20.5 53.5s29.5 26.5 47.5 26.5
c16 0 38 -9.83301 66 -29.5s48.333 -29.5 61 -29.5c14.667 0 26.5 5.66699 35.5 17s13.5 24.333 13.5 39h20zM485.997 260c0 -74.667 -19.666 -137.334 -58.999 -188.001c-42.667 -56 -100.334 -84 -173.001 -84c-72 0 -129.667 28 -173 84
c-38.667 50.667 -58 113.334 -58 188.001c0 74 19.667 136.667 59 188c43.333 55.333 101 83 173 83s129.333 -28 172 -84c39.333 -50.667 59 -113 59 -187zM465.998 260c0 68 -17.668 125.668 -53.001 173.001c-39.333 52 -92 78 -158 78s-118.667 -26 -158 -78
c-36 -46.667 -54 -104.334 -54 -173.001c0 -69.333 17.667 -127.333 53 -174c39.333 -52 92.333 -78 159 -78s119.334 26 158.001 78c35.333 47.333 53 105.333 53 174z" />
    <glyph glyph-name="odieresis" unicode="&#xf6;" horiz-adv-x="507" 
d="M342 574h-20v82h20v-82zM186 574h-20v82h20v-82zM485 260c0 -74.667 -19.666 -137.334 -58.999 -188.001c-42.667 -56 -100.334 -84 -173.001 -84c-72 0 -129.667 28 -173 84c-38.667 50.667 -58 113.334 -58 188.001c0 74 19.667 136.667 59 188
c43.333 55.333 101 83 173 83s129.333 -28 172 -84c39.333 -50.667 59 -113 59 -187zM465.001 260c0 68 -17.668 125.668 -53.001 173.001c-39.333 52 -92 78 -158 78s-118.667 -26 -158 -78c-36 -46.667 -54 -104.334 -54 -173.001c0 -69.333 17.667 -127.333 53 -174
c39.333 -52 92.333 -78 159 -78s119.334 26 158.001 78c35.333 47.333 53 105.333 53 174z" />
    <glyph glyph-name="divide" unicode="&#xf7;" horiz-adv-x="510" 
d="M296 470c0 -28 -13.667 -42 -41 -42s-41 14 -41 42c0 12 3.83301 21.833 11.5 29.5s17.5 11.5 29.5 11.5c11.333 0 21 -4 29 -12s12 -17.667 12 -29zM507 245h-504v21h504v-21zM296 41c0 -27.333 -13.667 -41 -41 -41s-41 13.667 -41 41c0 28 13.667 42 41 42
c11.333 0 21 -4 29 -12s12 -18 12 -30z" />
    <glyph glyph-name="oslash" unicode="&#xf8;" horiz-adv-x="533" 
d="M502 260c0 -74.667 -19.666 -137.332 -58.999 -187.999c-42.667 -56 -100.334 -84 -173.001 -84c-71.333 0 -128 26.667 -170 80l-57 -60l-14 14l60 63c-33.333 47.333 -50 105.666 -50 174.999c0 74 19.667 136.667 59 188c43.333 55.333 101 83 173 83
c70 0 125.667 -26 167 -78l45 48l14 -14l-47 -50c34.667 -48 52 -107 52 -177zM423.001 438.002c-36.667 48.667 -87.333 73.001 -152 73.001c-66.667 0 -119.667 -26 -159 -78c-35.333 -46.667 -53 -104.334 -53 -173.001c0 -62 14.667 -115.333 44 -160zM482.002 260.003
c0 62.667 -15.667 116.667 -47 162l-320 -338c36.667 -50.667 88.667 -76 156 -76c66 0 118.667 26 158 78c35.333 47.333 53 105.333 53 174z" />
    <glyph glyph-name="ugrave" unicode="&#xf9;" horiz-adv-x="440" 
d="M272 571h-15l-139 145h29zM416 0h-19.999v128h-2c-10.667 -43.333 -32.834 -77.5 -66.501 -102.5s-73.167 -37.5 -118.5 -37.5c-56.667 0 -101.334 17 -134.001 51s-49 79.333 -49 136v344h20v-341c0 -52 14.333 -93.333 43 -124s68.667 -46 120 -46
c58.667 0 105.334 22 140.001 66c31.333 40 47 90.333 47 151v294h20v-519z" />
    <glyph glyph-name="uacute" unicode="&#xfa;" horiz-adv-x="441" 
d="M323 716l-146 -145h-15l132 145h29zM412 0h-19.999v128h-2c-10.667 -43.333 -32.834 -77.5 -66.501 -102.5s-73.167 -37.5 -118.5 -37.5c-56.667 0 -101.334 17 -134.001 51s-49 79.333 -49 136v344h20v-341c0 -52 14.333 -93.333 43 -124s68.667 -46 120 -46
c58.667 0 105.334 22 140.001 66c31.333 40 47 90.333 47 151v294h20v-519z" />
    <glyph glyph-name="ucircumflex" unicode="&#xfb;" horiz-adv-x="447" 
d="M343 576h-20l-103 124l-99 -124h-20l113 140h15zM417 0h-19.999v128h-2c-10.667 -43.333 -32.834 -77.5 -66.501 -102.5s-73.167 -37.5 -118.5 -37.5c-56.667 0 -101.334 17 -134.001 51s-49 79.333 -49 136v344h20v-341c0 -52 14.333 -93.333 43 -124
s68.667 -46 120 -46c58.667 0 105.334 22 140.001 66c31.333 40 47 90.333 47 151v294h20v-519z" />
    <glyph glyph-name="udieresis" unicode="&#xfc;" horiz-adv-x="451" 
d="M312 574h-20v82h20v-82zM156 574h-20v82h20v-82zM419 0h-19.999v128h-2c-10.667 -43.333 -32.834 -77.5 -66.501 -102.5s-73.167 -37.5 -118.5 -37.5c-56.667 0 -101.334 17 -134.001 51s-49 79.333 -49 136v344h20v-341c0 -52 14.333 -93.333 43 -124
s68.667 -46 120 -46c58.667 0 105.334 22 140.001 66c31.333 40 47 90.333 47 151v294h20v-519z" />
    <glyph glyph-name="yacute" unicode="&#xfd;" horiz-adv-x="444" 
d="M329 738l-146 -145h-15l132 145h29zM438 519l-237.001 -625c-12 -31.333 -30 -52 -54 -62c-16.667 -7.33301 -44 -11 -82 -11v20c38.667 0 67.334 6 86.001 18c15.333 10 28.333 28.333 39 55l32 91l-215 514h22l204 -492l184 492h21z" />
    <glyph glyph-name="thorn" unicode="&#xfe;" horiz-adv-x="489" 
d="M487 261c0 -76.667 -16.668 -139.667 -50.001 -189c-39.333 -56 -95.666 -84 -168.999 -84c-50 0 -93.667 14.167 -131 42.5s-62.333 66.5 -75 114.5h-2v-324h-20v900h20v-347h2c14 49.333 39 87.833 75 115.5s79.667 41.5 131 41.5c73.333 0 129.333 -27.667 168 -83
c34 -48.667 51 -111 51 -187zM466.999 261c0 70.667 -15.002 128.333 -45.002 173c-35.333 51.333 -86.666 77 -153.999 77s-119.666 -25.667 -156.999 -77c-34 -45.333 -51 -103 -51 -173c0 -70.667 16.667 -129 50 -175c37.333 -52 90 -78 158 -78s119.667 26.333 155 79
c29.333 44.667 44 102.667 44 174z" />
    <glyph glyph-name="ydieresis" unicode="&#xff;" horiz-adv-x="445" 
d="M312 596h-20v82h20v-82zM156 596h-20v82h20v-82zM439 519l-237 -625c-11.333 -31.333 -29 -52 -53 -62c-17.333 -7.33301 -45 -11 -83 -11v20c39.333 0 68.333 6 87 18c15.333 10 28 28.333 38 55l32 91l-215 514h22l204 -492l184 492h21z" />
    <glyph glyph-name="dotlessi" unicode="&#x131;" horiz-adv-x="116" 
d="M60 0h-20v514h20v-514z" />
    <glyph glyph-name="Lslash" unicode="&#x141;" horiz-adv-x="534" 
d="M534 0h-437v269l-74 -52v24l74 52v421h20v-407l248 174v-24l-248 -174v-263h417v-20z" />
    <glyph glyph-name="lslash" unicode="&#x142;" horiz-adv-x="172" 
d="M169 455l-73 -63v-392h-20v375l-73 -63v25l73 63v314h20v-297l73 63v-25z" />
    <glyph glyph-name="OE" unicode="&#x152;" horiz-adv-x="998" 
d="M992 0h-434v66c-52.667 -55.333 -118 -83 -196 -83c-103.333 0 -185.333 37.333 -246 112c-56 69.333 -84 156.666 -84 261.999c0 106.667 27.667 195.334 83 266.001c60 76.667 142.333 115 247 115c82.667 0 148 -27.667 196 -83v66h434v-20h-414v-315h366v-20h-366
v-346h414v-20zM558 95v534c-56 59.333 -121.333 89 -196 89c-99.333 0 -177 -36.333 -233 -109c-51.333 -66 -77 -150 -77 -252c0 -100 26 -182.667 78 -248c56.667 -70.667 134 -106 232 -106c78 0 143.333 30.667 196 92z" />
    <glyph glyph-name="oe" unicode="&#x153;" horiz-adv-x="891" 
d="M858 256l-402 -0.00195312c0 -165.333 64 -248 192 -248c102 0 163 55.667 183 167h20c-9.33301 -57.333 -30.666 -102.333 -63.999 -135c-36 -34.667 -82.333 -52 -139 -52c-56 0 -101.5 14.833 -136.5 44.5s-56.5 71.834 -64.5 126.501h-2
c-24 -114 -90.667 -171 -200 -171c-70.667 0 -125 28.667 -163 86c-32 49.333 -48 111.333 -48 186c0 75.333 16 137.333 48 186c37.333 56.667 91.666 85 162.999 85c53.333 0 98 -16.167 134 -48.5s57.667 -75.166 65 -128.499h2c10 56 32.167 99.5 66.5 130.5
s79.5 46.5 135.5 46.5c74.667 0 130 -28.667 166 -86c29.333 -47.333 44 -110.333 44 -189zM838 275.998c-1.33301 68 -16.001 122.333 -44.001 163c-32.667 48 -81 72 -145 72c-123.333 0 -187.666 -78.333 -192.999 -235h382zM435.999 259.998
c0 71.333 -13.667 128.667 -41 172c-33.333 52.667 -83.333 79 -150 79c-65.333 0 -115 -26.667 -149 -80c-28 -44.667 -42 -101.667 -42 -171s14 -126.333 42 -171c34 -54 83.667 -81 149 -81c68.667 0 119 26 151 78c26.667 43.333 40 101.333 40 174z" />
    <glyph glyph-name="Scaron" unicode="&#x160;" horiz-adv-x="568" 
d="M411 940l-113 -140h-15l-114 140h20l103 -124l99 124h20zM549 177c0 -64 -27 -113.335 -81 -148.002c-46.667 -30.667 -103.667 -46 -171 -46c-86 0 -153.333 20.667 -202 62c-51.333 44 -77 108.667 -77 194h20c0 -157.333 86.333 -236 259 -236
c62 0 114.333 13.333 157 40c50 32 75 77 75 135c0 74 -42.333 125.667 -127 155l-236 59c-84.667 30 -127 83.333 -127 160c0 64.667 25.667 113.334 77 146.001c43.333 26.667 99 40 167 40c162 0 246 -73 252 -219h-20c-4 132.667 -81.333 199 -232 199
c-61.333 0 -112 -12 -152 -36c-48 -28.667 -72 -72 -72 -130c0 -69.333 42.333 -117.666 127 -144.999l236 -60c84.667 -32 127 -88.667 127 -170z" />
    <glyph glyph-name="scaron" unicode="&#x161;" horiz-adv-x="436" 
d="M343 738l-113 -140h-15l-114 140h20l103 -124l99 124h20zM414 132c0 -47.333 -19.667 -84 -59 -110c-34 -22.667 -76.333 -34 -127 -34c-138.667 0 -208 63.333 -208 190h20c0 -113.333 62.667 -170 188 -170c43.333 0 80.333 9.33301 111 28c36.667 22 55 53.333 55 94
c0 50.667 -30.667 86.334 -92 107.001l-170 44c-61.333 23.333 -92 63.333 -92 120c0 43.333 19 76.666 57 99.999c32 20 71 30 117 30c124 0 186 -55 186 -165h-20c0 96.667 -55.333 145 -166 145c-40 0 -74 -8 -102 -24c-34.667 -20 -52 -48.667 -52 -86
c0 -49.333 30.667 -84.333 92 -105l170 -45c61.333 -23.333 92 -63 92 -119z" />
    <glyph glyph-name="Ydieresis" unicode="&#x178;" horiz-adv-x="608" 
d="M392 776h-20v82h20v-82zM236 776h-20v82h20v-82zM603 721l-289 -417v-304h-20v304l-289 417h25l274 -396l275 396h24z" />
    <glyph glyph-name="Zcaron" unicode="&#x17d;" horiz-adv-x="542" 
d="M403 931l-113 -139h-15l-114 139h20l103 -123l99 123h20zM540 0h-527v27l499 667h-471v20h491v-27l-499 -667h507v-20z" />
    <glyph glyph-name="zcaron" unicode="&#x17e;" horiz-adv-x="419" 
d="M338 731l-113 -139h-15l-114 139h20l103 -123l99 123h20zM415 0h-397v25l360 469h-333v20h354v-25l-360 -469h376v-20z" />
    <glyph glyph-name="florin" unicode="&#x192;" horiz-adv-x="479" 
d="M478 731l-3.99902 -19c-20.667 4 -38.334 6 -53.001 6c-41.333 0 -73 -17.333 -95 -52c-16 -25.333 -28 -63.666 -36 -114.999l-16 -116h127l-4 -20h-127l-92 -471c-16 -82 -58 -123 -126 -123c-20 0 -36.667 2 -50 6l5 20c14 -4 28 -6 42 -6c58 0 94 35.667 108 107
l91 467h-119l4 20h119c6.66699 43.333 13 86.666 19 129.999c9.33301 54 23.333 94 42 120c25.333 35.333 62 53 110 53c20.667 0 39 -2.33301 55 -7z" />
    <glyph glyph-name="circumflex" unicode="&#x2c6;" horiz-adv-x="274" 
d="M258 598h-20l-103 124l-99 -124h-20l113 140h15z" />
    <glyph glyph-name="caron" unicode="&#x2c7;" horiz-adv-x="270" 
d="M256 731l-113 -139h-15l-114 139h20l103 -123l99 123h20z" />
    <glyph glyph-name="breve" unicode="&#x2d8;" horiz-adv-x="298" 
d="M272 731c-4 -33.333 -17.5 -59.5 -40.5 -78.5s-51.5 -28.5 -85.5 -28.5c-32 0 -59 9.83301 -81 29.5s-35 45.5 -39 77.5h20c3.33301 -26 14.333 -47 33 -63s41 -24 67 -24c64.667 0 100 29 106 87h20z" />
    <glyph glyph-name="dotaccent" unicode="&#x2d9;" horiz-adv-x="116" 
d="M60 590h-20v81h20v-81z" />
    <glyph glyph-name="ring" unicode="&#x2da;" horiz-adv-x="230" 
d="M203 674c0 -24 -8.66699 -44.667 -26 -62s-38 -26 -62 -26c-23.333 0 -43.833 8.83301 -61.5 26.5s-26.5 38.167 -26.5 61.5s8.83301 43.833 26.5 61.5s38.167 26.5 61.5 26.5s43.833 -8.83301 61.5 -26.5s26.5 -38.167 26.5 -61.5zM183 674
c0 18.667 -6.66699 34.667 -20 48s-29.333 20 -48 20c-18 0 -33.833 -6.66699 -47.5 -20s-20.5 -29.333 -20.5 -48s6.83301 -34.667 20.5 -48s29.5 -20 47.5 -20c18.667 0 34.667 6.66699 48 20s20 29.333 20 48z" />
    <glyph glyph-name="ogonek" unicode="&#x2db;" horiz-adv-x="204" 
d="M191 -150c-24 -26 -55.333 -39 -94 -39c-20 0 -37.667 5.5 -53 16.5s-23 26.167 -23 45.5c0 36 32.667 78.333 98 127h29c-70.667 -54 -106 -96 -106 -126c0 -14 5.5 -24.667 16.5 -32s23.833 -11 38.5 -11c33.333 0 59 10.333 77 31z" />
    <glyph glyph-name="tilde" unicode="&#x2dc;" horiz-adv-x="331" 
d="M297 685c0 -22 -6.00293 -40.167 -18.0029 -54.5s-29 -21.5 -51 -21.5c-17.333 0 -39.166 9.83301 -65.499 29.5s-46.833 29.5 -61.5 29.5c-12.667 0 -23.667 -6.5 -33 -19.5s-14.333 -26.5 -15 -40.5h-20c0 18 7 35.833 21 53.5s29.667 26.5 47 26.5
c16.667 0 38.834 -9.83301 66.501 -29.5s47.834 -29.5 60.501 -29.5c14.667 0 26.5 5.66699 35.5 17s13.5 24.333 13.5 39h20z" />
    <glyph glyph-name="hungarumlaut" unicode="&#x2dd;" horiz-adv-x="342" 
d="M328 731l-146 -144h-15l132 144h29zM178 731l-146 -144h-15l132 144h29z" />
    <glyph glyph-name="endash" unicode="&#x2013;" horiz-adv-x="581" 
d="M540 261h-500v20h500v-20z" />
    <glyph glyph-name="emdash" unicode="&#x2014;" horiz-adv-x="1080" 
d="M1040 261h-1000v20h1000v-20z" />
    <glyph glyph-name="quoteleft" unicode="&#x2018;" horiz-adv-x="86" 
d="M76 701c-16.667 -10.667 -25 -39.999 -25 -87.999v-119h-20v119c0 30 1.66699 50.667 5 62c6 19.333 19.333 34.666 40 45.999v-20z" />
    <glyph glyph-name="quoteright" unicode="&#x2019;" horiz-adv-x="88" 
d="M55 602c0 -30 -2 -50.668 -6 -62.001c-5.33301 -19.333 -18.333 -34.666 -39 -45.999v20c16.667 10.667 25 40 25 88v119h20v-119z" />
    <glyph glyph-name="quotesinglbase" unicode="&#x201a;" horiz-adv-x="82" 
d="M55 0c0 -60 -15 -100 -45 -120v20c18 16.667 27 57.667 27 123c0 12 -0.333008 26.667 -1 44s-1 28 -1 32h20v-99z" />
    <glyph glyph-name="quotedblleft" unicode="&#x201c;" horiz-adv-x="209" 
d="M182 701c-16.667 -10.667 -25 -39.999 -25 -87.999v-119h-20v119c0 30 1.66699 50.667 5 62c6 19.333 19.333 34.666 40 45.999v-20zM82 701.001c-16.667 -10.667 -25 -39.999 -25 -87.999v-119h-20v119c0 30 1.66699 50.667 5 62c6 19.333 19.333 34.666 40 45.999v-20z
" />
    <glyph glyph-name="quotedblright" unicode="&#x201d;" horiz-adv-x="211" 
d="M173 602c0 -30 -1.66699 -50.668 -5 -62.001c-6 -19.333 -19.333 -34.666 -40 -45.999v20c16.667 10.667 25 40 25 88v119h20v-119zM73 601.999c0 -30 -1.66699 -50.668 -5 -62.001c-6 -19.333 -19.333 -34.666 -40 -45.999v20c16.667 10.667 25 40 25 88v119h20v-119z
" />
    <glyph glyph-name="quotedblbase" unicode="&#x201e;" horiz-adv-x="209" 
d="M173 0c0 -60 -15 -100 -45 -120v20c18 16.667 27 57.667 27 123c0 12 -0.333008 26.667 -1 44s-1 28 -1 32h20v-99zM73 0c0 -60 -15 -100 -45 -120v20c18 16.667 27 57.667 27 123c0 12 -0.333008 26.667 -1 44s-1 28 -1 32h20v-99z" />
    <glyph glyph-name="dagger" unicode="&#x2020;" horiz-adv-x="438" 
d="M437 456h-208v-597h-20v597h-208v20h208v245h20v-245h208v-20z" />
    <glyph glyph-name="daggerdbl" unicode="&#x2021;" horiz-adv-x="438" 
d="M437 58h-208v-199h-20v199h-208v20h208v424h-208v20h208v199h20v-199h208v-20h-208v-424h208v-20z" />
    <glyph glyph-name="bullet" unicode="&#x2022;" horiz-adv-x="413" 
d="M385 361c0 -49.333 -17.5 -91.833 -52.5 -127.5s-77.167 -53.5 -126.5 -53.5c-50 0 -92.167 17.833 -126.5 53.5s-51.5 78.167 -51.5 127.5s17.167 91.5 51.5 126.5s76.5 52.5 126.5 52.5c49.333 0 91.5 -17.5 126.5 -52.5s52.5 -77.167 52.5 -126.5z" />
    <glyph glyph-name="ellipsis" unicode="&#x2026;" horiz-adv-x="766" 
d="M726 0h-20v99h20v-99zM393 0h-20v99h20v-99zM60 0h-20v99h20v-99z" />
    <glyph glyph-name="perthousand" unicode="&#x2030;" horiz-adv-x="1039" 
d="M1025 160c0 -48.667 -13.666 -88.999 -40.999 -120.999c-28.667 -34 -66.667 -51 -114 -51c-48.667 0 -86.667 16.667 -114 50c-25.333 31.333 -38 71.666 -38 120.999c0 50 12.333 91 37 123c27.333 34 65.666 51 114.999 51s88 -16.667 116 -50
c26 -31.333 39 -72.333 39 -123zM337.001 525.001c0 -48.667 -13.999 -89.333 -41.999 -122s-65.667 -49 -113 -49c-48.667 0 -86.667 16.667 -114 50c-25.333 30.667 -38 70.667 -38 120c0 50 12.333 91 37 123c27.333 34.667 65.666 52 114.999 52s88 -17 116 -51
c26 -31.333 39 -72.333 39 -123zM597.002 721.002l-476 -755h-23l476 755h23zM665.002 160.002c0 -48.667 -13.666 -88.999 -40.999 -120.999c-28.667 -34 -66.667 -51 -114 -51c-48.667 0 -86.667 16.667 -114 50c-25.333 31.333 -38 71.666 -38 120.999
c0 50 12.333 91 37 123c27.333 34 65.666 51 114.999 51s88 -16.667 116 -50c26 -31.333 39 -72.333 39 -123zM1005 159.003c0 46 -11.3311 83.166 -33.998 111.499s-56.334 42.5 -101.001 42.5s-78.334 -15 -101.001 -45c-20.667 -26.667 -31 -63 -31 -109
c0 -43.333 10.667 -78.666 32 -105.999c24 -30 57.333 -45 100 -45c42 0 75.333 15 100 45c23.333 28 35 63.333 35 106zM317.005 524.002c0 46.667 -10.667 83.3311 -32 109.998c-24 30 -58.333 45 -103 45s-78.667 -15 -102 -45c-20 -27.333 -30 -64 -30 -110
c0 -43.333 11 -78.666 33 -105.999c23.333 -29.333 56.333 -44 99 -44c42 0 75 14.333 99 43s36 64.334 36 107.001zM645.005 158.999c0 46 -11.3311 83.166 -33.998 111.499s-56.334 42.5 -101.001 42.5s-78.334 -15 -101.001 -45c-20.667 -26.667 -31 -63 -31 -109
c0 -43.333 10.667 -78.666 32 -105.999c24 -30 57.333 -45 100 -45c42 0 75.333 15 100 45c23.333 28 35 63.333 35 106z" />
    <glyph glyph-name="guilsinglleft" unicode="&#x2039;" horiz-adv-x="145" 
d="M104 122l-103 141v16l103 140v-35l-83 -113l83 -113v-36z" />
    <glyph glyph-name="guilsinglright" unicode="&#x203a;" horiz-adv-x="144" 
d="M143 263l-103 -141v36l83 113l-83 113v35l103 -140v-16z" />
    <glyph glyph-name="fraction" unicode="&#x2044;" horiz-adv-x="501" 
d="M500 714l-476 -748h-23l476 748h23z" />
    <glyph glyph-name="trademark" unicode="&#x2122;" horiz-adv-x="867" 
d="M827 305h-20v396h-2l-164 -396h-20l-164 396h-2v-396h-20v416h34l162 -388l162 388h34v-416zM341 701h-150v-396h-20v396h-150v20h320v-20z" />
    <glyph glyph-name="fi" unicode="&#xf001;" horiz-adv-x="327" 
d="M287 613h-20v101h20v-101zM287 0h-20v514h20v-514zM240 690c-17.333 2.66699 -32.999 4 -46.999 4c-28.667 0 -48.667 -5.16699 -60 -15.5s-17 -29.5 -17 -57.5v-107h111v-20h-111v-494h-20v494h-88v20h88c0 11.333 -0.5 27.5 -1.5 48.5s-1.5 35.833 -1.5 44.5
c0 36 6 61.667 18 77c15.333 20 44 30 86 30c1.33301 0 15.666 -1.33301 42.999 -4v-20z" />
    <glyph glyph-name="NULL" horiz-adv-x="0" 
 />
    <glyph glyph-name="nonmarkingreturn" horiz-adv-x="205" 
 />
    <glyph glyph-name="glyph224" horiz-adv-x="205" 
 />
    </font>
</defs>
</svg>
